ML
     
  Уважаемый Гость!
Вы можете поддержать проект и зарегистрироваться у наших партнеров - онлайн-стратегия MyLands. При регистрации в игре Вы получите код, который сможете активировать после регистрации на pirat.ca и получить 1000 дублонов.

Ваш код:
ec3b26eefbcdc72e08e9fd33c6846bb2ca10f8b1
 
     

Счастье – это... (Артём Прохоров, Леонид Залесский, Анна Яновская, Татьяна Гулина, Виктория Козельцева, Татьяна Пономарева, Сергей Буров) [2015 г., семейный, мелодрама, WEB-DLRip] Original (RUS)

Ответить на тему
 
Автор
Сообщение

Пост 28-Апр-2015 07:50

[Q] 

aleksey99

--Счастье – это...--«Мы все его ищем, каждый его достоин и его хватит на всех»-- Производство: Россия, Disney
Год выпуска: 2015 г.
Жанр: семейный, мелодрама
Продолжительность: 01:38:16--Премьера (РФ): 26 марта 2015, «WDSSPR»--Режиссер: Артём Прохоров, Леонид Залесский, Анна Яновская, Татьяна Гулина, Виктория Козельцева, Татьяна Пономарева, Сергей Буров--В ролях: Станислав Дужников, Борис Щербаков, Валерий Гаркалин, Андрей Мерзликин, Егор Бероев, Светлана Иванова, Павел Прилучный, Сергей Пускепалис, Сергей Лавыгин, Алина Бабак--Описание: В ленте собраны семь историй, каждая из которых имеет добрый финал и по-своему доказывает, что все достойны счастья.-- --Качество видео: WEB-DLRip
Контейнер: AVI
Видео кодек: XviD
Аудио кодек: AC3
Видео: 720x304 (2.37:1), 25 fps, XviD build 50 ~1733 kbps avg, 0.32 bit/pixel
Аудио: 48 kHz, AC3 Dolby Digital, 3/2 (L,C,R,l,r) + LFE ch, ~384 kbps
Cубтитры: отсутствуют
Общее
Полное имя : E:\T2\C4aCtje.ET0.2015.O.WEB-DLRip.1.46Gb.avi
Формат : AVI
Формат/Информация : Audio Video Interleave
Размер файла : 1,46 Гбайт
Продолжительность : 1 ч. 38 м.
Общий поток : 2128 Кбит/сек
Программа кодирования : VirtualDubMod 1.5.10.3 | www.virtualdub-fr.org || (build 2550/release)
Библиотека кодирования : VirtualDubMod build 2550/release
Видео
Идентификатор : 0
Формат : MPEG-4 Visual
Профиль формата : Advanced [email protected]
Параметр BVOP формата : 2
Параметр QPel формата : Нет
Параметр GMC формата : Без точки перехода
Параметр матрицы формата : Default (MPEG)
Идентификатор кодека : XVID
Идентификатор кодека/Подсказка : XviD
Продолжительность : 1 ч. 38 м.
Битрейт : 1734 Кбит/сек
Ширина : 720 пикселей
Высота : 304 пикселя
Соотношение сторон : 2,35:1
Частота кадров : 25,000 кадров/сек
Цветовое пространство : YUV
Субдискретизация насыщенности : 4:2:0
Битовая глубина : 8 бит
Тип развёртки : Прогрессивная
Метод сжатия : С потерями
Бит/(Пиксели*Кадры) : 0.317
Размер потока : 1,19 Гбайт (81%)
Библиотека кодирования : XviD 1.2.1 (UTC 2008-12-04)
Аудио
Идентификатор : 1
Формат : AC-3
Формат/Информация : Audio Coding 3
Расширение режима : CM (complete main)
Параметр Endianness формата : Big
Идентификатор кодека : 2000
Продолжительность : 1 ч. 38 м.
Вид битрейта : Постоянный
Битрейт : 384 Кбит/сек
Каналы : 6 каналов
Расположение каналов : Front: L C R, Side: L R, LFE
Частота : 48,0 КГц
Битовая глубина : 16 бит
Метод сжатия : С потерями
Размер потока : 270 Мбайт (18%)
Выравнивание : Разделение по промежуткам
Продолжительность промежутка : 40 мс. (1,00 видеокадр)
Время предзагрузки промежутка : 500 мс.
Трейлер
Download / Скачать

Хотите скачать бесплатно? Зарегистрируйтесь на сайте (ссылка на регистрацию). Pirat.ca - самый быстрый торрент трекер в рунете!

Как скачивать  ·   Что такое торрент  ·   Рейтинг и ограничения

vito12

Штурман

Пост 28-Апр-2015 12:15 (спустя 4 часа)

[Q] 

Счастье это...дохера денег!
[Профиль]  [ЛС] 

Tramp

Корсар

96

Пост 28-Апр-2015 12:55 (спустя 39 минут)

[Q] 

vito12, ... и женщин.
[Профиль]  [ЛС] 

Skala973

Корсар

Пост 28-Апр-2015 13:26 (спустя 31 минута)

[Q] 

А прикольный фильм. Очень даже хороший. Давно такого не видел. Качать обязательно.
[Профиль]  [ЛС] 

salavat1234

Гроза морей

Пост 28-Апр-2015 19:41 (спустя 6 часов)

[Q] 

После такой аннотации,надо посмотреть. Автору респект!!! Лови бочку
[Профиль]  [ЛС] 

mazur1981

Шкипер

Пост 29-Апр-2015 02:24 (спустя 6 часов)

[Q] 

Изумительный фильм! Добрый, светлый, супер!!! Побольше бы таких снимали, редкость в нашем кинематографе с его высерами про "братву, ботву". Не ожидал что так захватит когда начинал смотреть. Однозначно смотреть!!! Раздающему спасибо!!
[Профиль]  [ЛС] 

Дрей

Штурман

Пост 29-Апр-2015 10:34 (спустя 8 часов)

[Q] 

Лови бочку Спасибо большое
[Профиль]  [ЛС] 

pdb08

Легенда

Пост 29-Апр-2015 10:53 (спустя 18 минут)

[Q] 

Спасибо за труд! Посмотрю после таких комментов) Пиратка рулит!

_________________
[Профиль]  [ЛС] 

kudrjavy

Флибустьер

Пост 30-Апр-2015 00:18 (спустя 13 часов)

[Q] 

Сопли? Спасибо!!!

_________________
Девушки-как печеньки: ломаются,пока не намокнут...
[Профиль]  [ЛС] 

infiniti-r

Корсар

Пост 30-Апр-2015 15:19 (спустя 15 часов)

[Q] 

Спасибо! Отзывы хорошие,качаю) Автору респект!!!
[Профиль]  [ЛС] 

Пост 06-Июн-2015 09:25 (спустя 1 месяц 5 дней)

Топик был перенесен из форума Новинки (HD|DVD|BD| TV|SAT|PDTV| - Rips) в форум Российские фильмы
aleksey99
 

Scorpion7474

Флибустьер

Пост 16-Июн-2015 19:31 (спустя 1 месяц 16 дней)

[Q] 

Лови бочку Спасибо!!!
[Профиль]  [ЛС] 

ТАЛИ

Корсар

Пост 07-Ноя-2016 22:33 (спустя 1 год 4 месяца)

[Q] 

Мне, например, принципиально и искренне нравятся все Ёлки! Я люблю незамутненное доброе кино, смотря которое хочется улыбаться и чувствовать себя ребенком, о котором заботятся и стараются не огорчать. Счастье - это из той же оперы. Здесь никто не выдавливает из себя драматургию, не пытаются пробить зрителя на слезу запрещенными приемами, не парят мозг высокодуховным и интеллектуальным. Это просто очень светлое, доброе и простое кино, которое смотришь и понимаешь, что никакой подлянки режиссеры не устроят и тебе до конца просмотра будет уютно. Просто поумиляться. Это тоже иногда надо делать, чтоб не превратиться в злобного, брюзжащего сухаря.
[Профиль]  [ЛС] 
Показать сообщения:    
Ответить на тему

Текущее время: Сегодня 03:49

Часовой пояс: GMT + 4



Вы не можете начинать темы
Вы не можете отвечать на сообщения
Вы не можете редактировать свои сообщения
Вы не можете удалять свои сообщения
Вы не можете голосовать в опросах
Вы не можете прикреплять файлы к сообщениям
Вы не можете скачивать файлы

▼ Вниз