ML
     
  Уважаемый Гость!
Вы можете поддержать проект и зарегистрироваться у наших партнеров - онлайн-стратегия MyLands. При регистрации в игре Вы получите код, который сможете активировать после регистрации на pirat.ca и получить 1000 дублонов.

Ваш код:
bc31d8aef74c92e19ad67e34a8fa63c3b9b812fb
 
     

Мама дарагая! (Ярослав Чеважевский) [2014 г., комедия, WEB-DLRip] Original (RUS) [iTunes]

Ответить на тему
 
Автор
Сообщение

Пост 02-Май-2015 11:57

[Q] 

aleksey99

--Мама дарагая!-- Производство: Россия
Год выпуска: 2014 г.
Жанр: комедия
Продолжительность: 01:25:43--Премьера (РФ): 16 апреля 2015, «Парадиз»--Режиссер: Ярослав Чеважевский--В ролях: Дмитрий Аверин, Нина Лощининa, Ксения Раппопорт, Марина Голуб, Игорь Яцко, Юрий Колокольников, Артур Ваха, Марина Рокина, Альберт Афонин, Юрий Симонов--Описание: Когда тебе двадцать два и ты живешь только по маминым правилам, самое время сказать: «С меня хватит!». Но Славику такое и в голову не придет, пока он не встретит девушку Женю. Теперь ему предстоит решать, чья любовь победит — ведь за попытку сорваться с крючка мама объявит войну.
Как Славику вырасти и стать, наконец, мужчиной?! Как Жене вытащить парня из-под маминой юбки?! В этом помогут верные и опытные друзья с большим чувством юмора…-- --Качество видео: WEB-DLRip
Контейнер: AVI
Видео кодек: XviD
Аудио кодек: AC3
Видео: 720x400 (1.80:1), 25 fps, XviD MPEG-4 ~2039 kbps avg, 0.28 bit/pixel
Аудио: 48 kHz, AC3 Dolby Digital, 3/2 (L,C,R,l,r) + LFE ch, ~384 kbps
Cубтитры: отсутствуют
Общее
Полное имя : E:\T2\Mama.Daragay.2014.O.WEB-DLRip.avi
Формат : AVI
Формат/Информация : Audio Video Interleave
Размер файла : 1,46 Гбайт
Продолжительность : 1 ч. 25 м.
Общий поток : 2434 Кбит/сек
Программа кодирования : VirtualDubMod 1.5.10.3 | www.virtualdub-fr.org || (build 2550/release)
Видео
Идентификатор : 0
Формат : MPEG-4 Visual
Профиль формата : Advanced [email protected]
Параметр BVOP формата : 2
Параметр QPel формата : Нет
Параметр GMC формата : Без точки перехода
Параметр матрицы формата : Default (MPEG)
Режим смешивания : Сжатый битовый поток
Идентификатор кодека : XVID
Идентификатор кодека/Подсказка : XviD
Продолжительность : 1 ч. 25 м.
Битрейт : 2040 Кбит/сек
Ширина : 720 пикселей
Высота : 400 пикселей
Соотношение сторон : 16:9
Частота кадров : 25,000 кадров/сек
Цветовое пространство : YUV
Субдискретизация насыщенности : 4:2:0
Битовая глубина : 8 бит
Тип развёртки : Прогрессивная
Метод сжатия : С потерями
Бит/(Пиксели*Кадры) : 0.283
Размер потока : 1,22 Гбайт (84%)
Библиотека кодирования : XviD 73
Аудио
Идентификатор : 1
Формат : AC-3
Формат/Информация : Audio Coding 3
Расширение режима : CM (complete main)
Параметр Endianness формата : Big
Идентификатор кодека : 2000
Продолжительность : 1 ч. 25 м.
Вид битрейта : Постоянный
Битрейт : 384 Кбит/сек
Каналы : 6 каналов
Расположение каналов : Front: L C R, Side: L R, LFE
Частота : 48,0 КГц
Битовая глубина : 16 бит
Метод сжатия : С потерями
Размер потока : 235 Мбайт (16%)
Выравнивание : Разделение по промежуткам
Продолжительность промежутка : 40 мс. (1,00 видеокадр)
Время предзагрузки промежутка : 500 мс.
Трейлер
Download / Скачать

Хотите скачать бесплатно? Зарегистрируйтесь на сайте (ссылка на регистрацию). Pirat.ca - самый быстрый торрент трекер в рунете!

Как скачивать  ·   Что такое торрент  ·   Рейтинг и ограничения

ATHLON

Шкипер

12

Пост 02-Май-2015 12:03 (спустя 5 минут)

[Q] 

как фильм?
[Профиль]  [ЛС] 

Tolich2

Морской Волк

Пост 02-Май-2015 13:17 (спустя 1 час 13 минут)

[Q] 

как всегда шедеврально???

_________________
[Профиль]  [ЛС] 

Maks_e

Корсар

69

Пост 02-Май-2015 19:17 (спустя 6 часов)

[Q] 

Спасибо!!!
[Профиль]  [ЛС] 

gnezd77

Флибустьер

Пост 02-Май-2015 19:19 (спустя 1 минута)

[Q] 

Спасибо !!! Очень хотелось посмотреть !!!! Спасибо!!!
[Профиль]  [ЛС] 

Дрей

Штурман

Пост 02-Май-2015 21:48 (спустя 2 часа 29 минут)

[Q] 

Лови бочку Долго они этот фильм снимали.
[Профиль]  [ЛС] 

Aleks44

Гроза морей

Пост 02-Май-2015 22:17 (спустя 29 минут)

[Q] 

Фильм во имя добра, средний фильм, показали в память Марины Голуб
[Профиль]  [ЛС] 

bolin

Флибустьер

Пост 02-Май-2015 22:55 (спустя 37 минут)

[Q] 

Спасибо посмотрю!
[Профиль]  [ЛС] 

sokolov-ml

Морской Волк

Пост 03-Май-2015 13:11 (спустя 14 часов)

[Q] 

Несмотря на то что фильм русский и не особо для интелектуалов, можно сказать что он всё же производит впечатление на зрителя за счет не очень тонкого но качественного юмора, посмотрел раз - получил удовольствие, поржал. Рекомендую разик посмотреть Всем качать!!! Спасибо!!!

_________________
Скорость-как наркотик, либо убивает либо доводит до состояния блаженства.
[Профиль]  [ЛС] 

уася

Корсар

Пост 03-Май-2015 17:55 (спустя 4 часа)

[Q] 

качество норм,спасибо
[Профиль]  [ЛС] 

Alexlogin

Гроза морей

105

Пост 03-Май-2015 18:57 (спустя 1 час 1 минута)

[Q] 

Спасибо посмотрим
[Профиль]  [ЛС] 

gnezd77

Флибустьер

Пост 03-Май-2015 22:06 (спустя 3 часа)

[Q] 

По мне так дешево и скучно....
[Профиль]  [ЛС] 

goga13

Штурман

Пост 04-Май-2015 08:59 (спустя 10 часов)

[Q] 

очередной высер
[Профиль]  [ЛС] 

FakeeR

Штурман

Пост 04-Май-2015 22:12 (спустя 13 часов)

[Q] 

Фильм отличный!!!! кто не понял или не понравился фильм - сочувствую, с вами все плохо. Фильм мега позитивный - не шедевр конечно, но комедия очень даже, вообще лучшее, что я посмотрел за последние пол года.
[Профиль]  [ЛС] 

Oksika

Флибустьер

Пост 07-Май-2015 14:01 (спустя 2 дня 15 часов)

[Q] 

Раздающему в любом случае респект. А фильм – мягко говоря, на любителя.
[Профиль]  [ЛС] 

Xanarim

Морской Волк

Пост 09-Май-2015 15:15 (спустя 2 дня 1 час)

[Q] 

По описанию и комментам - белиберда какая-то . Придется самому смотреть
[Профиль]  [ЛС] 

ТАЛИ

Корсар

Пост 09-Май-2015 17:31 (спустя 2 часа 15 минут)

[Q] 

Про фриков. Степень дибилизма в фильме настолько зашкаливает, что даже неприятно. Ооочень сильно на любителя.
[Профиль]  [ЛС] 

grosboy

Флибустьер

Пост 12-Май-2015 10:02 (спустя 2 дня 16 часов)

[Q] 

А че стёбный фильм. Не надо париться в сценарий. Просто время убить. В начале напрягает а потом лучше пойдет Спасибо!!!

_________________
Щастье есть - его не может не быть...
[Профиль]  [ЛС] 

surzis

Корсар

Пост 14-Май-2015 11:09 (спустя 2 дня 1 час)

[Q] 

Раздающему респект, фильм такой шлак что п****ц!

_________________
http://surzis.ru/ - заходи ко мне в блог! Советую только хорошие фильмы и игры!
[Профиль]  [ЛС] 

Полтос

Флибустьер

Пост 17-Май-2015 14:55 (спустя 3 дня)

[Q] 

Спасибо! Получил море положительных впечатлений!))) Согласен, фильм не для каждого - в основном для людей среднего возраста. Детям и людям в возрасте явно не понравится. На фоне остальных наших фильмов - выделяется сарказмом, юмором, наивностью и простотой.
Мне понравилось Автору респект!!!

_________________
Первый закон Прапорщика: Всё что поднимаемо - относительно!)
[Профиль]  [ЛС] 

landsir

Шкипер

Пост 19-Май-2015 11:53 (спустя 1 день 20 часов)

[Q] 

фильм норм, смотреть можно. мне понравился!!!!!!!!!!!!!!!!!!!!!!!!! Всем качать!!!
[Профиль]  [ЛС] 

Пост 06-Июн-2015 09:38 (спустя 17 дней)

Топик был перенесен из форума Новинки (HD|DVD|BD| TV|SAT|PDTV| - Rips) в форум Российские фильмы
aleksey99
 
Показать сообщения:    
Ответить на тему

Текущее время: Сегодня 12:03

Часовой пояс: GMT + 4



Вы не можете начинать темы
Вы не можете отвечать на сообщения
Вы не можете редактировать свои сообщения
Вы не можете удалять свои сообщения
Вы не можете голосовать в опросах
Вы не можете прикреплять файлы к сообщениям
Вы не можете скачивать файлы

▼ Вниз