ML
     
  Уважаемый Гость!
Вы можете поддержать проект и зарегистрироваться у наших партнеров - онлайн-стратегия MyLands. При регистрации в игре Вы получите код, который сможете активировать после регистрации на pirat.ca и получить 1000 дублонов.

Ваш код:
ef8b3e8cd07bec918273586d22e5aaf18e0ae925
 
     

Велкам хом (Ангелина Никонова) [2014 г., драма, комедия, WEB-DLRip] MVO [iTunes]

Ответить на тему
 
Автор
Сообщение

Пост 05-Май-2015 12:59

[Q] 

aleksey99

--Велкам хом-- Производство: Россия / Baraban Films
Год выпуска: 2014 г.
Жанр: драма, комедия
Продолжительность: 01:55:36--Мировая премьера: 10 июля 2014
Российская премьера: 11 сентября 2014, «Utopia Pictures»
Релиз на DVD: 28 апреля 2015, «CD Land»--Перевод: Профессиональный (многоголосый, закадровый) [iTunes]--Режиссер: Ангелина Никонова--В ролях: Карен Карагулян, Ольга Дыховичная, Остин Кеннеди, Ара Воланд, Кори Бордман, Гвен Косак, Эдвард Бейкер-Дьюли--Описание: Это история о людях, потерявших чувство принадлежности к определённой географической точке, к тому месту, которое мы называем домом. Всех их объединяет жажда иллюзорного успеха, в гонке за которым многие проводят годы и десятилетия, жертвуя своими первоначальными ценностями.
Герои фильма — не самые несчастные люди на свете, но у всех них непростая жизнь, которую каждый избрал добровольно, надеясь реализовать свои представления о благополучии. Нью-Йорк для них — поле боя, где они ежедневно борются за свою мечту.-- --Качество видео: WEB-DLRip
Контейнер: AVI
Видео кодек: XviD
Аудио кодек: AC3
Видео: 720x384 (1.88:1), 24 fps, XviD MPEG-4 ~1410 kbps avg, 0.21 bit/pixel
Аудио: 48 kHz, AC3 Dolby Digital, 3/2 (L,C,R,l,r) + LFE ch, ~384 kbps
Cубтитры: отсутствуют
Общее
Полное имя : E:\T2\Welcam.Hom.2013.P.WEB-DLRip.avi
Формат : AVI
Формат/Информация : Audio Video Interleave
Размер файла : 1,46 Гбайт
Продолжительность : 1 ч. 55 м.
Общий поток : 1804 Кбит/сек
Программа кодирования : VirtualDubMod 1.5.10.3 | www.virtualdub-fr.org || (build 2550/release)
Видео
Идентификатор : 0
Формат : MPEG-4 Visual
Профиль формата : Advanced [email protected]
Параметр BVOP формата : 2
Параметр QPel формата : Нет
Параметр GMC формата : Без точки перехода
Параметр матрицы формата : Default (MPEG)
Режим смешивания : Сжатый битовый поток
Идентификатор кодека : XVID
Идентификатор кодека/Подсказка : XviD
Продолжительность : 1 ч. 55 м.
Битрейт : 1411 Кбит/сек
Ширина : 720 пикселей
Высота : 384 пикселя
Соотношение сторон : 1,85:1
Частота кадров : 24,000 кадра/сек
Цветовое пространство : YUV
Субдискретизация насыщенности : 4:2:0
Битовая глубина : 8 бит
Тип развёртки : Прогрессивная
Метод сжатия : С потерями
Бит/(Пиксели*Кадры) : 0.213
Размер потока : 1,14 Гбайт (78%)
Библиотека кодирования : XviD 73
Аудио
Идентификатор : 1
Формат : AC-3
Формат/Информация : Audio Coding 3
Расширение режима : CM (complete main)
Параметр Endianness формата : Big
Идентификатор кодека : 2000
Продолжительность : 1 ч. 55 м.
Вид битрейта : Постоянный
Битрейт : 384 Кбит/сек
Каналы : 6 каналов
Расположение каналов : Front: L C R, Side: L R, LFE
Частота : 48,0 КГц
Битовая глубина : 16 бит
Метод сжатия : С потерями
Размер потока : 318 Мбайт (21%)
Выравнивание : Разделение по промежуткам
Продолжительность промежутка : 42 мс. (1,00 видеокадр)
Время предзагрузки промежутка : 500 мс.
Трейлер
Download / Скачать

Хотите скачать бесплатно? Зарегистрируйтесь на сайте (ссылка на регистрацию). Pirat.ca - самый быстрый торрент трекер в рунете!

Как скачивать  ·   Что такое торрент  ·   Рейтинг и ограничения

уася

Корсар

Пост 05-Май-2015 19:46 (спустя 6 часов)

[Q] 

фильм еще не смотрел,а качество хорошее.
[Профиль]  [ЛС] 

zdimir

Морской Волк

Пост 06-Май-2015 07:41 (спустя 11 часов)

[Q] 

Спасибо! Фильм интересный!
[Профиль]  [ЛС] 

Дрей

Штурман

Пост 06-Май-2015 09:33 (спустя 1 час 52 минуты)

[Q] 

прикольно глянем Спасибо!!!
[Профиль]  [ЛС] 

crash27

Лоцман

Пост 06-Май-2015 19:21 (спустя 9 часов)

[Q] 

Главное перевод =)
[Профиль]  [ЛС] 

lenurka73

Штурман

Пост 09-Май-2015 17:10 (спустя 2 дня 21 час)

[Q] 

Мне понравилось Сначала фильм показался скучноват...но, через 20 минут затянул. Неплох, хотя не для всех.
[Профиль]  [ЛС] 

Skala973

Корсар

Пост 13-Май-2015 22:59 (спустя 4 дня)

[Q] 

Интересный фильм. Про обычных людей, которые вроде как современные кочевники. Нет у них родины. Так, только воспоминания остались Вроде корячатся, пытаются себя идентифицировать как представителей своих этносов, а по сути... Так, жалкая пародия на людей.
Очень интересный фильм. И говорят что реалистичный. Ну типа там в "плавильном котле наций", так всё и происходит на самом деле.
не знаю, но на сайте "Тёмная сторона Америки", прямо вот так же и описывается жизнь в США.
Хороший фильм одним словом, но своеобразный. Надо на определённой волне находиться, чтобы в тему въехать.
[Профиль]  [ЛС] 

dambrina

Флибустьер

Пост 15-Май-2015 20:28 (спустя 1 день 21 час)

[Q] 

Спасибо!!!
[Профиль]  [ЛС] 

Пост 06-Июн-2015 09:35 (спустя 21 день)

Топик был перенесен из форума Новинки (HD|DVD|BD| TV|SAT|PDTV| - Rips) в форум Российские фильмы
aleksey99
 

kucha11

Корсар

Пост 01-Фев-2016 22:36 (спустя 8 месяцев 17 дней)

[Q] 

Супер!
[Профиль]  [ЛС] 
Показать сообщения:    
Ответить на тему

Текущее время: Сегодня 18:40

Часовой пояс: GMT + 4



Вы не можете начинать темы
Вы не можете отвечать на сообщения
Вы не можете редактировать свои сообщения
Вы не можете удалять свои сообщения
Вы не можете голосовать в опросах
Вы не можете прикреплять файлы к сообщениям
Вы не можете скачивать файлы

▼ Вниз