ML
     
  Уважаемый Гость!
Вы можете поддержать проект и зарегистрироваться у наших партнеров - онлайн-стратегия MyLands. При регистрации в игре Вы получите код, который сможете активировать после регистрации на pirat.ca и получить 1000 дублонов.

Ваш код:
bb0cb47ee786a33f751af5a500dd264c9487bfac
 
     

Дорога на Берлин (Сергей Попов) [2015 г., военный, драма, DVDRip] (Лицензия)

Ответить на тему
 
Автор
Сообщение

Пост 14-Май-2015 17:33

[Q] 

LPPI

-Дорога на Берлин- Производство: Россия, Мосфильм, Продюсерская компания Александра Литвинова
Год выпуска: 2015 г.
Жанр: военный, драма
Продолжительность: 01:22:20
Российская премьера: 7 мая 2015, «Каропрокат»
Дата выхода DVD: 26 мая 2015, «Lizard Cinema Trade»
Дата выхода Blu-Ray: 26 мая 2015, «Lizard Cinema Trade»-Режиссер: Сергей Попов
В ролях: Юрий Борисов, Амир Абдыкалыков, Мария Карпова, Максим Демченко, Александр Новик, Артем Лебедев, Андрей Дерюгин-Описание: Действие фильма происходит в Великую Отечественную войну. Главные герои — лейтенант Огарков и рядовой Джурабаев — молодые люди, выходцы из разных союзных республик, разные по характеру и жизненным позициям, но объединенные общей целью. В основе фильма лежат их сложные отношения и поступки, продиктованные фоном страшных событий войны. Это история о человеческих взаимоотношениях, истинных нравственных ценностях, долге перед Родиной, близкими и самим собой.- -Качество видео: DVDRip
Контейнер: AVI
Видео кодек: XviD
Аудио кодек: AC3
Видео: 720x384 (1.88:1), 25 fps, XviD build 65 ~1921 kbps avg, 0.28 bit/pixel
Аудио: Russian: 48 kHz, AC3 Dolby Digital, 3/2 (L,C,R,l,r) + LFE ch, ~448 kbps
Cубтитры: отсутствуют-
General
Complete name : F:\D0P0ga.Ha.bePL1H.2O15.O.DVDRip.1400MB.avi
Format : AVI
Format/Info : Audio Video Interleave
File size : 1.37 GiB
Duration : 1h 22mn
Overall bit rate : 2 379 Kbps
Writing application : VirtualDubMod 1.5.10.3 | www.virtualdub-fr.org || (build 2550/release)
Writing library : VirtualDubMod build 2550/release
Video
ID : 0
Format : MPEG-4 Visual
Format profile : Advanced [email protected]
Format settings, BVOP : 2
Format settings, QPel : No
Format settings, GMC : No warppoints
Format settings, Matrix : Default (H.263)
Codec ID : XVID
Codec ID/Hint : XviD
Duration : 1h 22mn
Bit rate : 1 922 Kbps
Width : 720 pixels
Height : 384 pixels
Display aspect ratio : 1.85:1
Frame rate : 25.000 fps
Color space : YUV
Chroma subsampling : 4:2:0
Bit depth : 8 bits
Scan type : Progressive
Compression mode : Lossy
Bits/(Pixel*Frame) : 0.278
Stream size : 1.11 GiB (81%)
Writing library : XviD 65
Audio
ID : 1
Format : AC-3
Format/Info : Audio Coding 3
Mode extension : CM (complete main)
Format settings, Endianness : Big
Codec ID : 2000
Duration : 1h 22mn
Bit rate mode : Constant
Bit rate : 448 Kbps
Channel(s) : 6 channels
Channel positions : Front: L C R, Side: L R, LFE
Sampling rate : 48.0 KHz
Compression mode : Lossy
Stream size : 264 MiB (19%)
Alignment : Split accross interleaves
Interleave, duration : 40 ms (1.00 video frame)
Interleave, preload duratio : 500 ms
-Скриншоты:-- -
Download / Скачать

Хотите скачать бесплатно? Зарегистрируйтесь на сайте (ссылка на регистрацию). Pirat.ca - самый быстрый торрент трекер в рунете!

Как скачивать  ·   Что такое торрент  ·   Рейтинг и ограничения

feldorius

Корсар

Пост 14-Май-2015 18:47 (спустя 1 час 14 минут)

[Q] 

Последнее время по данной тематике снимают откровенную хрень.
Заценим...
[Профиль]  [ЛС] 

bronko

Лоцман

Пост 14-Май-2015 19:18 (спустя 30 минут)

[Q] 

1 скрин как и 3 многообещающий apбуду качать.
[Профиль]  [ЛС] 

plistikanatolii

Морской Волк

Пост 14-Май-2015 19:38 (спустя 20 минут)

[Q] 

большое спасибо.действительно последнее время уж очень много бредовых псевдовоенных кинокартин расплодилось
[Профиль]  [ЛС] 

alex_dry

Гроза морей

Пост 14-Май-2015 20:00 (спустя 22 минуты)

[Q] 

Кто смотрел? Стоит качать?
[Профиль]  [ЛС] 

Vankhelsing07

Юнга

Пост 14-Май-2015 20:26 (спустя 25 минут)

[Q] 

Камрады, как фильм? Смотреть стоит?
[Профиль]  [ЛС] 

frescobaldi

Штурман

Пост 14-Май-2015 20:41 (спустя 15 минут)

[Q] 

Забрал, спасибо за оперативность Автору респект!!!

_________________

[Профиль]  [ЛС] 

kabam1

Штурман

Пост 14-Май-2015 21:03 (спустя 21 минута)

[Q] 

Спасибо!!! Автору респект!!! заценим
[Профиль]  [ЛС] 

Scrayd

Лоцман

Пост 14-Май-2015 21:13 (спустя 9 минут)

[Q] 

Большое спасибо посмотрим
[Профиль]  [ЛС] 

Base87

Лоцман

Пост 15-Май-2015 19:59 (спустя 22 часа)

[Q] 

Откровенное г...Смотреть не советую фу
[Профиль]  [ЛС] 

ALEXPES2012

Пост 20-Май-2015 17:22 (спустя 4 дня)

[Q] 

Очень даже добротный, хороший, правдивый фильм. Ценность человеческой жизни на войне - пшик, и это показано великолепно в каждой из сцен. Актёры не прилизаны, происходящее очень убедительно, пафоса нет. Есть правда жизни на войне, весьма горькая и, порой, отвратительная. Создателям фильма - респект и уважуха!
[Профиль]  [ЛС] 

Ушастый

Лоцман

Пост 20-Май-2015 19:06 (спустя 1 час 43 минуты)

[Q] 

Не осилил, хотя были надежды.))) Оч жаль.))) Личное мнение-жалкое подобие "левой руки".))))
[Профиль]  [ЛС] 

Skala973

Корсар

Пост 21-Май-2015 00:38 (спустя 5 часов)

[Q] 

...жалкое подобие "левой руки".))))
Ай молодца! Редко кто помнит это выражение. Может быть эта фраза вполне правильно описывает фильм. К тому же, был и советский вариант этого фильма. Кстати, очень даже нормальный фильм был. Названия вот только не помню.
[Профиль]  [ЛС] 

spidercola86

3254

Пост 29-Май-2015 15:55 (спустя 8 дней)

[Q] 

LPPI, Ты вкурсе что из-за этой раздачи сайт пират.ка забанили???
https://antizapret.info/index.php?search=pirat.ca
[Профиль]  [ЛС] 

Пост 15-Июн-2015 07:04 (спустя 16 дней)

Топик был перенесен из форума Новинки (HD|DVD|BD| TV|SAT|PDTV| - Rips) в форум Российские фильмы
aleksey99
 

alexx2201

33

Пост 04-Июл-2015 02:36 (спустя 1 месяц 5 дней)

[Q] 

677456Последнее время по данной тематике снимают откровенную хрень.
Заценим...
Поддерживаю про хрень и не только по этой тематике .
спасибо.

_________________
hard приказал долго жить....
[Профиль]  [ЛС] 
Показать сообщения:    
Ответить на тему

Текущее время: Сегодня 02:22

Часовой пояс: GMT + 4



Вы не можете начинать темы
Вы не можете отвечать на сообщения
Вы не можете редактировать свои сообщения
Вы не можете удалять свои сообщения
Вы не можете голосовать в опросах
Вы не можете прикреплять файлы к сообщениям
Вы не можете скачивать файлы

▼ Вниз