ML
     
  Уважаемый Гость!
Вы можете поддержать проект и зарегистрироваться у наших партнеров - онлайн-стратегия MyLands. При регистрации в игре Вы получите код, который сможете активировать после регистрации на pirat.ca и получить 1000 дублонов.

Ваш код:
74c28610d77aaac24ba694c4128f3b9b46b04220
 
     

Битва за Севастополь (Сергей Мокрицкий) [2015 г., военный, драма, мелодрама, боевик, BDRip] (Лицензия)

Ответить на тему
 
Автор
Сообщение

Пост 16-Май-2015 13:21

[Q] 

LPPI

- -Битва за Севастополь- Производство: Россия, Украина, Новые люди
Год выпуска: 2015 г.
Жанр: военный, драма, мелодрама, боевик
Продолжительность: 02:02:49
Мировая премьера: 2 апреля 2015
Российская премьера: 2 апреля 2015, «Двадцатый Век Фокс СНГ»
Дата выхода DVD: 12 мая 2015, «CD Land», «Lizard Cinema Trade»
Дата выхода Blu-Ray: 12 мая 2015, «Lizard Cinema Trade»-Режиссер: Сергей Мокрицкий
В ролях: Юлия Пересильд, Евгений Цыганов, Олег Васильков, Никита Тарасов, Джоан Блэкэм, Полина Пахомова, Владимир Лилицкий, Анатолий Кот, Нателла Абелева-Таганова, Валерий Гришко, Сергей Барковский, Виталий Линецкий, Сергей Пускепалис, Геннадий Ченцов, Светлана Осадченко, Алла Сергийко, Станислав Боклан, Дмитрий Лаленков, Станислав Лесной, Сергей Сипливый-Описание: Любовь под нескончаемым огнем противника, дружба с Элеонорой Рузвельт, выступление на конференции, повлиявшее на исход Второй мировой войны, желание жить и страх потерять любимого человека — справится ли со всем этим хрупкая женщина?
Это реальная история Людмилы Павличенко — легендарной женщины-снайпера. Солдаты шли в бой с ее именем на устах, а враги устроили на нее охоту. На поле битвы она видела смерть и страдания, но самым серьезным испытанием для нее стала любовь, которую у нее могла забрать война…- -Качество видео: BDRip
Контейнер: AVI
Видео кодек: XviD
Аудио кодек: AC3
Видео: 720x304 (2.37:1), 24 fps, XviD build 65 ~2087 kbps avg, 0.40 bit/pixel
Аудио: Russian: 48 kHz, AC3 Dolby Digital, 3/2 (L,C,R,l,r) + LFE ch, ~448 kbps - Лицензия
Cубтитры: отсутствуют-
General
Complete name : F:\Bitva.za.Sevastopol.2015.RUS.BDRip.avi
Format : AVI
Format/Info : Audio Video Interleave
Format profile : OpenDML
File size : 2.18 GiB
Duration : 2h 2mn
Overall bit rate : 2 542 Kbps
Writing application : VirtualDubMod 1.5.10.2 (build 2540/release)
Video
ID : 0
Format : MPEG-4 Visual
Format profile : Advanced [email protected]
Format settings, BVOP : 1
Format settings, QPel : No
Format settings, GMC : No warppoints
Format settings, Matrix : Custom
Codec ID : XVID
Codec ID/Hint : XviD
Duration : 2h 2mn
Bit rate : 2 082 Kbps
Width : 720 pixels
Height : 304 pixels
Display aspect ratio : 2.35:1
Frame rate : 24.000 fps
Color space : YUV
Chroma subsampling : 4:2:0
Bit depth : 8 bits
Scan type : Progressive
Compression mode : Lossy
Bits/(Pixel*Frame) : 0.396
Stream size : 1.79 GiB (82%)
Writing library : XviD 65
Audio
ID : 1
Format : AC-3
Format/Info : Audio Coding 3
Mode extension : CM (complete main)
Format settings, Endianness : Big
Codec ID : 2000
Duration : 2h 2mn
Bit rate mode : Constant
Bit rate : 448 Kbps
Channel(s) : 6 channels
Channel positions : Front: L C R, Side: L R, LFE
Sampling rate : 48.0 KHz
Compression mode : Lossy
Stream size : 394 MiB (18%)
Alignment : Split accross interleaves
Interleave, duration : 42 ms (1.00 video frame)
Interleave, preload duratio : 500 ms
-Скриншоты:-- -
Download / Скачать

Хотите скачать бесплатно? Зарегистрируйтесь на сайте (ссылка на регистрацию). Pirat.ca - самый быстрый торрент трекер в рунете!

Как скачивать  ·   Что такое торрент  ·   Рейтинг и ограничения

ikmol10

Лоцман

Пост 17-Май-2015 17:16 (спустя 1 день 3 часа)

[Q] 

ФИЛЬМ КЛАСС,СОВЕТУЮ!!!
[Профиль]  [ЛС] 

kudrjavy

Флибустьер

Пост 18-Май-2015 11:30 (спустя 18 часов)

[Q] 

Фильм понравился!!! Советую!! Все ужасы войны.... Лови бочку

_________________
Девушки-как печеньки: ломаются,пока не намокнут...
[Профиль]  [ЛС] 

landsir

Шкипер

Пост 19-Май-2015 10:19 (спустя 22 часа)

[Q] 

патриотический фильм. смотреть можно. очень понравился!!!!!!!!!!!!!!!!!!!!!!!!!!!! Лови бочку
[Профиль]  [ЛС] 

salavat1234

Гроза морей

Пост 19-Май-2015 18:26 (спустя 8 часов)

[Q] 

Хороший фильм. Автору респект!!! Лови бочку
[Профиль]  [ЛС] 

Korcha40

Морской Волк

Пост 19-Май-2015 19:44 (спустя 1 час 18 минут)

[Q] 

а почему битва за севастополь ? а не сенокос на льдине ? в фильме есть плюсы и минусы ! ожидал большего ! но посмотреть можно ! Спасибо!!! Автору респект!!!
[Профиль]  [ЛС] 

Kovrovchanin

Лоцман

Пост 19-Май-2015 23:19 (спустя 3 часа)

[Q] 

Почему 20 век фокс? Это точно не Севастополь. Где флот? как не умели они снимать о нас , так и не научились. Даже с нашими актерами. Не верю по Станиславскому...
фильм только на 3. и это не ненависть а янкам. это правда ток 3 бала.
[Профиль]  [ЛС] 

juk_777

Шкипер

Пост 26-Май-2015 00:11 (спустя 6 дней)

[Q] 

рекомендую - неплохо снято Спасибо!!!
[Профиль]  [ЛС] 

лысый 777

Морской Волк

Пост 26-Май-2015 20:12 (спустя 20 часов)

[Q] 

фильм не плохой! советую. Автору респект!!!
[Профиль]  [ЛС] 

damhsn

Штурман

Пост 27-Май-2015 13:28 (спустя 17 часов)

[Q] 

Название фильма совсем не соответствует содержанию. Полфильма это разговоры с женой президента сша, боевых сцен мало, вообщем слабая троечка ИМХО.
[Профиль]  [ЛС] 

feldorius

Корсар

Пост 27-Май-2015 15:18 (спустя 1 час 50 минут)

[Q] 

Фильм на троечку.
Как обычно испортили названием.
[Профиль]  [ЛС] 

zvarac

Морской Волк

Пост 20-Июн-2015 23:27 (спустя 24 дня)

[Q] 

Спасибо! !COOL!
[Профиль]  [ЛС] 

Hausser

Гроза морей

Пост 20-Июн-2015 23:33 (спустя 6 минут)

[Q] 

Полфильма про тетку президента Пиндостана, какое она имеет отношение к Севастополю?
[Профиль]  [ЛС] 

msss

Морской Волк

Пост 25-Окт-2015 18:43 (спустя 4 месяца 4 дня)

[Q] 

Не понимаю кто все эти люди которые пишут положительные отзывы. За весь фильм порадовала только пара эксцентричных сцен в бою. Всё остальное чушь несусветная.
[Профиль]  [ЛС] 

markuswolf

Шкипер

Пост 25-Ноя-2015 21:01 (спустя 1 месяц)

[Q] 

"Название фильма совсем не соответствует содержанию." - согласен! Тема фильма гораздо шире названия. И ещё... Не понимаю разных названий фильма в России и Украине. Что ещё раз доказывает, что придурков больше чем людей. Она была не русской и не украинкой. Она была СОВЕТСКОЙ, что гораздо сильнее... Спасибо!!!
Вечная память павшим в боя за освобождение нашей Родины!!!

_________________
Грустной жопой - радостно не пукнешь...
[Профиль]  [ЛС] 

ZhekasCat

Морской Волк

35

Пост 03-Дек-2015 15:04 (спустя 7 дней)

[Q] 

Качественный фильм!!!
[Профиль]  [ЛС] 

perez666

Морской Волк

Пост 26-Дек-2015 13:55 (спустя 22 дня)

[Q] 

А когда у нас будут давать оскар - этот фильм заслужевает
[Профиль]  [ЛС] 

lexuss21

Штурман

Пост 06-Фев-2016 17:51 (спустя 1 месяц 11 дней)

[Q] 

Классный фильм!
[Профиль]  [ЛС] 

Hippopotam

Корсар

Пост 24-Апр-2016 02:08 (спустя 2 месяца 17 дней)

[Q] 

Смотреть стоит. Авось сторонников ведения всяческих войн поубавится Лови бочку
[Профиль]  [ЛС] 

tyuwa28

Шкипер

Пост 06-Июн-2016 03:11 (спустя 1 месяц 12 дней)

[Q] 

ЧУШЬ ПОЛНАЯ!!! махровая КОМУНЯЧЬЯ ПРОПАГАНДА!!! НИКАКОЙ БИТВЫ ЗА СЕВАСТОПОЛЬ НЕ ПОКАЗАНО ВООБЩЕ!!!ПОЛНЫЙ ИДИОТИЗМ И ВРАНЬЕ!!!!!!!!!!!!!!
[Профиль]  [ЛС] 
Показать сообщения:    
Ответить на тему

Текущее время: Сегодня 09:57

Часовой пояс: GMT + 4



Вы не можете начинать темы
Вы не можете отвечать на сообщения
Вы не можете редактировать свои сообщения
Вы не можете удалять свои сообщения
Вы не можете голосовать в опросах
Вы не можете прикреплять файлы к сообщениям
Вы не можете скачивать файлы

▼ Вниз