ML
     
  Уважаемый Гость!
Вы можете поддержать проект и зарегистрироваться у наших партнеров - онлайн-стратегия MyLands. При регистрации в игре Вы получите код, который сможете активировать после регистрации на pirat.ca и получить 1000 дублонов.

Ваш код:
bc31d8aef74c92e19ad67e34a8fa63c3b9b812fb
 
     

Приличные люди (Клим Поплавский) [2015 г., комедия, WEB-DLRip] (iTunes)

Ответить на тему
 
Автор
Сообщение

Пост 31-Май-2015 20:14

[Q] 

LPPI

-Приличные люди- Производство: Россия
Год выпуска: 2015 г.
Жанр: комедия
Продолжительность: 01:26:50
Российская премьера: 30 апреля 2015, «Двадцатый Век Фокс СНГ»-Режиссер: Клим Поплавский
В ролях: Наталия Медведева, Сергей Шнуров, Евгений Сморигин, Григорий Цветков, Артём Башенин, Алексей Гришин, Игорь Хрипунов, Андрей Федорцов, Константин Мурзенко, Анна Уколова-Описание: Что делать, если в вашем доме поселился родственник, недавно освободившийся из тюрьмы? И сделал жизнь вашей семьи невыносимой. А вы с женой случайно его убили. И соседский мальчик видел, как вы пытались закопать труп на заднем дворе. А инспектор ДПС обратил внимание на вашего неразговорчивого родственника в машине. Не очень представляя себе жизнь за решеткой, вы, наверное, должны избавиться от трупа… и, видимо, от маленького свидетеля … и полицейскому вы тоже как-то не должны позволить рассказать, что у вас в машине не совсем живой человек и чужой ребенок…- -Качество видео: WEB-DLRip
Контейнер: AVI
Видео кодек: XviD
Аудио кодек: AC3
Видео: 720x384 (1.88:1), 25 fps, XviD build 50 ~1860 kbps avg, 0.27 bit/pixel
Аудио: Russian: 48 kHz, AC3 Dolby Digital, 3/2 (L,C,R,l,r) + LFE ch, ~384 kbps
Cубтитры: отсутствуют-
General
Complete name : F:\5rilichnye.1udi.2015.O.WEB-DLRip.1400MB.avi
Format : AVI
Format/Info : Audio Video Interleave
File size : 1.37 GiB
Duration : 1h 26mn
Overall bit rate : 2 255 Kbps
Writing application : VirtualDubMod 1.5.10.3 | www.virtualdub-fr.org || (build 2550/release)
Writing library : VirtualDubMod build 2550/release
Video
ID : 0
Format : MPEG-4 Visual
Format profile : Advanced [email protected]
Format settings, BVOP : 2
Format settings, QPel : No
Format settings, GMC : No warppoints
Format settings, Matrix : Default (MPEG)
Codec ID : XVID
Codec ID/Hint : XviD
Duration : 1h 26mn
Bit rate : 1 861 Kbps
Width : 720 pixels
Height : 384 pixels
Display aspect ratio : 1.85:1
Frame rate : 25.000 fps
Color space : YUV
Chroma subsampling : 4:2:0
Bit depth : 8 bits
Scan type : Progressive
Compression mode : Lossy
Bits/(Pixel*Frame) : 0.269
Stream size : 1.13 GiB (83%)
Writing library : XviD 1.2.1 (UTC 2008-12-04)
Audio
ID : 1
Format : AC-3
Format/Info : Audio Coding 3
Mode extension : CM (complete main)
Format settings, Endianness : Big
Codec ID : 2000
Duration : 1h 26mn
Bit rate mode : Constant
Bit rate : 384 Kbps
Channel(s) : 6 channels
Channel positions : Front: L C R, Side: L R, LFE
Sampling rate : 48.0 KHz
Compression mode : Lossy
Stream size : 238 MiB (17%)
Alignment : Split accross interleaves
Interleave, duration : 40 ms (1.00 video frame)
Interleave, preload duratio : 500 ms
-Скриншоты:-- -
Download / Скачать

Хотите скачать бесплатно? Зарегистрируйтесь на сайте (ссылка на регистрацию). Pirat.ca - самый быстрый торрент трекер в рунете!

Как скачивать  ·   Что такое торрент  ·   Рейтинг и ограничения

gaucho

Лоцман

Пост 31-Май-2015 23:06 (спустя 2 часа 52 минуты)

[Q] 

Шнур весь фильм "убитый" был?
[Профиль]  [ЛС] 

bolin

Флибустьер

Пост 01-Июн-2015 01:21 (спустя 2 часа 14 минут)

[Q] 

Заинтриговали! такой сюжет я еще не смотрел:)
[Профиль]  [ЛС] 

razerface

Флибустьер

2399

Пост 01-Июн-2015 18:52 (спустя 17 часов)

[Q] 

А не перепев ли это фильма "Уикенд у Берни"? .

_________________
Я — личность творческая, хочу творю, хочу вытворяю!
[Профиль]  [ЛС] 

Роман1412

Морской Волк

Пост 04-Июн-2015 23:53 (спустя 3 дня)

[Q] 

Автору спасибо. Кто смотрел? как фильм?
[Профиль]  [ЛС] 

pony782

Лоцман

Пост 05-Июн-2015 00:06 (спустя 12 минут)

[Q] 

Подскажите, что за фигня! Не могу ниодин торрент скачать! "Не удалось загрузить файл" и все(((
[Профиль]  [ЛС] 

grosboy

Флибустьер

Пост 08-Июн-2015 21:38 (спустя 3 дня)

[Q] 

Прикольный фильм. Местами туповатый но с хэпиэндом. На раз глянуть вполне пойдёт. Автору респект!!!

_________________
Щастье есть - его не может не быть...
[Профиль]  [ЛС] 

Shofar

Лоцман

Пост 09-Июн-2015 00:21 (спустя 2 часа 42 минуты)

[Q] 

на раз ито с середины начинаешь думать: когда же он закончится???Ни о чем и ничего нового.Уикенд у Берни, столетней давности, был намного ярче. Но автору-спасибо!
[Профиль]  [ЛС] 

Мишки

Морской Волк

Пост 09-Июн-2015 01:57 (спустя 1 час 36 минут)

[Q] 

Шнуру не везет с фильмами. (

_________________
Это всего лишь игра, настройся на волну позитива!:)
[Профиль]  [ЛС] 

platon18

Гроза морей

Пост 09-Июн-2015 08:25 (спустя 6 часов)

[Q] 

качну, гляну на Шнурка
[Профиль]  [ЛС] 

marme1ad

Лоцман

Пост 09-Июн-2015 16:55 (спустя 8 часов)

[Q] 

Это худший фильм, который я смотрел за последние года 2. Автору спасибо, но я бы ооооочень жалел, если бы за фильм я отдал деньги.
[Профиль]  [ЛС] 

TomIce

Морской Волк

Пост 11-Июн-2015 00:03 (спустя 1 день 7 часов)

[Q] 

что то напоминает по сюжету из-за бугра
[Профиль]  [ЛС] 

goodvin15

Лоцман

Пост 11-Июн-2015 22:24 (спустя 22 часа)

[Q] 

а мну понравился....
[Профиль]  [ЛС] 

kinomechanik

Лоцман

Пост 11-Июн-2015 22:40 (спустя 15 минут)

[Q] 

не смотрите это гамно, еле до середины досмотрел, что там дальше абсолютно не интересно. Лучше "Территория" посмотреть.
[Профиль]  [ЛС] 

Mollchun

Корсар

927

Пост 13-Июн-2015 15:57 (спустя 1 день 17 часов)

[Q] 

Кто скажет этой бабе Наталии Медведевой что нельзя ей сниматься в кино....Постоянно вижу ее на ЦТ где мне ее пытаются впарить как актрису...КЛОУН ИЗ КАМЕДИ ВУМЕН....вот ее бездарная фишка. А ГЛАВНЫЙ ГЕРОЙ ПУСТЬ И РЕКЛАМИРУЕТ СРЕДСТВА ДЛЯ ПОДЪЕМА ТЯГИ.. пусть в кино просто не лезет...мыж все смотрим. ТРАВМА У НАС....))))

_________________
[Профиль]  [ЛС] 

Scorpion7474

Флибустьер

Пост 17-Июн-2015 21:00 (спустя 4 дня)

[Q] 

Спасибо!!! Лови бочку
[Профиль]  [ЛС] 

Bos_Man

Штурман

Пост 18-Июн-2015 18:56 (спустя 21 час)

[Q] 

Фильмец на один разок. Местами даже улыбнуло.
[Профиль]  [ЛС] 

Kosmatos

Корсар

Пост 18-Июн-2015 20:54 (спустя 1 час 57 минут)

[Q] 

682890А не перепев ли это фильма "Уикенд у Берни"? .
Согласен. Та же мысль пришла. Только Берни ржачнее в разы, не смотря на то, что на 20 лет старше
[Профиль]  [ЛС] 

fanar

15

Пост 28-Июн-2015 13:23 (спустя 9 дней)

[Q] 

ондноразовый фильм
[Профиль]  [ЛС] 

Saturn

Корсар

446

Пост 23-Апр-2016 23:54 (спустя 9 месяцев 25 дней)

[Q] 

Нормально! На раз потянет! Автору респект!
[Профиль]  [ЛС] 
Показать сообщения:    
Ответить на тему

Текущее время: Сегодня 11:57

Часовой пояс: GMT + 4



Вы не можете начинать темы
Вы не можете отвечать на сообщения
Вы не можете редактировать свои сообщения
Вы не можете удалять свои сообщения
Вы не можете голосовать в опросах
Вы не можете прикреплять файлы к сообщениям
Вы не можете скачивать файлы

▼ Вниз