ML
     
  Уважаемый Гость!
Вы можете поддержать проект и зарегистрироваться у наших партнеров - онлайн-стратегия MyLands. При регистрации в игре Вы получите код, который сможете активировать после регистрации на pirat.ca и получить 1000 дублонов.

Ваш код:
062e2babcc491faeb40d496cf9a498ac3df6cdd0
 
     

8 новых свиданий (Марюс Вайсберг) [2015 г., комедия, DVDRip][Лицензия]

Ответить на тему
 
Автор
Сообщение

Пост 03-Июн-2015 20:39

[Q] 

aleksey99

--8 новых свиданий-- Производство: Россия, Горад
Год выпуска: 2015 г.
Жанр: комедия
Продолжительность: 01:20:56--Мировая премьера: 1 января 2015
Российская премьера: 1 января 2015, «Централ Партнершип»
Дата выхода DVD: 3 марта 2015, «Lizard Cinema Trade»--Режиссер: Марюс Вайсберг--В ролях: Оксана Акиньшина, Владимир Зеленский, Михаил Галустян, Полина Максимова, Сергей Шнуров, Виктор Васильев (III), Сабина Ахмедова, Евгений Кошевой, Сергей Беляев, Наталья Унгард, Наталья Иохвидова--Описание: Вера и Никита женаты 3 года. В разгар очередной радостной ссоры они обмениваются категоричными мнениями о том, какими должны быть «нормальный муж» и «хорошая жена». И на следующее утро… каждый просыпается с «идеальной половинкой». У Никиты жена-блондинка с третьим размером, которая хорошо готовит; у Веры заботливый муж-бизнесмен, сам покупающий к завтраку ее любимые круасаны. С кем жить лучше, с любимым или идеальным? Будьте осторожны с желаниями — иногда они сбываются!-- --Качество видео: DVDRip
Контейнер: AVI
Видео кодек: XviD
Аудио кодек: AC3
Видео: 720x400 (1.80:1), 25 fps, XviD MPEG-4 ~1963 kbps avg, 0.27 bit/pixel
Аудио: 48 kHz, AC3 Dolby Digital, 3/2 (L,C,R,l,r) + LFE ch, ~448 kbps
Cубтитры: отсутствуют
Общее
Полное имя : E:\T2\8.Novih.Svidaniy.2015.O.DVDRip.avi
Формат : AVI
Формат/Информация : Audio Video Interleave
Размер файла : 1,37 Гбайт
Продолжительность : 1 ч. 20 м.
Общий поток : 2422 Кбит/сек
Программа кодирования : VirtualDubMod 1.5.10.3 | www.virtualdub-fr.org || (build 2550/release)
Видео
Идентификатор : 0
Формат : MPEG-4 Visual
Профиль формата : Advanced [email protected]
Параметр BVOP формата : 2
Параметр QPel формата : Нет
Параметр GMC формата : Без точки перехода
Параметр матрицы формата : Default (MPEG)
Режим смешивания : Сжатый битовый поток
Идентификатор кодека : XVID
Идентификатор кодека/Подсказка : XviD
Продолжительность : 1 ч. 20 м.
Битрейт : 1964 Кбит/сек
Ширина : 720 пикселей
Высота : 400 пикселей
Соотношение сторон : 16:9
Частота кадров : 25,000 кадров/сек
Цветовое пространство : YUV
Субдискретизация насыщенности : 4:2:0
Битовая глубина : 8 бит
Тип развёртки : Прогрессивная
Метод сжатия : С потерями
Бит/(Пиксели*Кадры) : 0.273
Размер потока : 1,11 Гбайт (81%)
Библиотека кодирования : XviD 73
Аудио
Идентификатор : 1
Формат : AC-3
Формат/Информация : Audio Coding 3
Расширение режима : CM (complete main)
Параметр Endianness формата : Big
Идентификатор кодека : 2000
Продолжительность : 1 ч. 20 м.
Вид битрейта : Постоянный
Битрейт : 448 Кбит/сек
Каналы : 6 каналов
Расположение каналов : Front: L C R, Side: L R, LFE
Частота : 48,0 КГц
Битовая глубина : 16 бит
Метод сжатия : С потерями
Размер потока : 259 Мбайт (18%)
Выравнивание : Разделение по промежуткам
Продолжительность промежутка : 40 мс. (1,00 видеокадр)
Время предзагрузки промежутка : 500 мс.
Трейлер
Download / Скачать

Хотите скачать бесплатно? Зарегистрируйтесь на сайте (ссылка на регистрацию). Pirat.ca - самый быстрый торрент трекер в рунете!

Как скачивать  ·   Что такое торрент  ·   Рейтинг и ограничения

Jek@

Легенда

Пост 04-Июн-2015 15:31 (спустя 18 часов)

[Q] 

Спасибо!!! .
[Профиль]  [ЛС] 

MikeB

Гроза морей

Пост 05-Июн-2015 01:50 (спустя 10 часов)

[Q] 

На любителя
[Профиль]  [ЛС] 

Serg759

Корсар

Пост 28-Июн-2015 22:16 (спустя 23 дня)

[Q] 

Согласен, На любителя
[Профиль]  [ЛС] 

Сумрак

1660

Пост 05-Июл-2015 01:54 (спустя 6 дней)

[Q] 

легкий фильм со смыслом но больно что то знакомое поди слизали опять с запада а так под пивко ржачный.. но это для любителей романтики рекомендую смотреть с девушкой после ругани)))

_________________
[Профиль]  [ЛС] 

Дэн

Флибустьер

Пост 28-Июл-2015 15:05 (спустя 23 дня)

[Q] 

Фильму пол года, могли бы и блюрей уже выкладывать, всё равно пиратка заблокирована в России.
[Профиль]  [ЛС] 

ТАЛИ

Корсар

Пост 28-Ноя-2015 17:18 (спустя 4 месяца)

[Q] 

Хороший, легкий фильмец. Очень качественный, даже трогательный. Для пар в кризисе, наверно, подойдет. Вот только пирог от соседей в конце аж покоробил своей американистостью. Это ж их фишка. Или на наших Рублевках слизали традицию? Сомневаюсь, водку и шашлыки для добрососедских отношений ничто не заменит:)
[Профиль]  [ЛС] 

maksmuravjov

Шкипер

Пост 24-Янв-2016 20:26 (спустя 1 месяц 26 дней)

[Q] 

Автору респект!!!
[Профиль]  [ЛС] 

OLEG_PS2009

Флибустьер

Пост 04-Май-2016 10:15 (спустя 3 месяца 10 дней)

[Q] 

Спасибо, фильм понравился)))
[Профиль]  [ЛС] 

Амангельды

35485

Пост 04-Май-2016 11:01 (спустя 45 минут)

[Q] 

Жаль только, что эта гнида Зеленский сначала у нас зарабатывает бабло, а потом жертвует на убийство людей.

_________________

Товарищ, верь, пройдет она,
Так называемая гласность.
И вот тогда госбезопасность
Припомнит ваши имена
Раздачи от Амангельды - ТЫНЦ
[Профиль]  [ЛС] 

_umka_

Штурман

Пост 11-Май-2016 21:35 (спустя 7 дней)

[Q] 

Из за зеленского пришлось не смотреть.
[Профиль]  [ЛС] 
Показать сообщения:    
Ответить на тему

Текущее время: Сегодня 17:38

Часовой пояс: GMT + 4



Вы не можете начинать темы
Вы не можете отвечать на сообщения
Вы не можете редактировать свои сообщения
Вы не можете удалять свои сообщения
Вы не можете голосовать в опросах
Вы не можете прикреплять файлы к сообщениям
Вы не можете скачивать файлы

▼ Вниз