ML
     
  Уважаемый Гость!
Вы можете поддержать проект и зарегистрироваться у наших партнеров - онлайн-стратегия MyLands. При регистрации в игре Вы получите код, который сможете активировать после регистрации на pirat.ca и получить 1000 дублонов.

Ваш код:
bb0cb47ee786a33f751af5a500dd264c9487bfac
 
     

Дорога без конца (Владимир Толкачиков) [2014 г., мелодрама, драма, HDRip] Original (RUS)

Ответить на тему
 
Автор
Сообщение

Пост 14-Июн-2015 15:07

[Q] 

aleksey99

--Дорога без конца-- Производство: Россия, Мосфильм, Киностудия "Жанр"
Год выпуска: 2014 г.
Жанр: мелодрама, драма
Продолжительность: 01:29:44--Российская премьера: 16 апреля 2015, «Мастер Синема»--Режиссер: Владимир Толкачиков--В ролях: Вера Алентова, Владимир Зайцев, Николай Захаров, Сергей Рудзевич, Алла Сергийко, Мария Карпова, Иван Михайловский, Николай Сердцев, Олег Филипчик, Дмитрий Смирнов, Дмитрий Ячевский, Анжелика Вольская, Евгений Вальц, Юсуп Даниялов, Руслан Хайбулаев, Жанна Оганесян, Пётр Грезев, Диана Енакаева, Дарья Андреева, Арсений Толкачиков, Екатерина Виноградова, Татьяна Чепелевич, Мария Борисова, Иван Щеглов, Геннадий Семёнов, Андрей Свиридов, Анастасия Семёнова, Алексей Голиков, Антон Ансимов, Артур Бичахчян, Владимир Мохов--Описание: Современная история, которая разворачивается в российской провинции. Пока пассажиры следуют по маршруту, знакомятся, ссорятся и мирятся. Они еще не знают о приближении часа Х и о том, что для кого-то эта дорога останется без конца…-- --Качество видео: HDRip
Контейнер: AVI
Видео кодек: XviD
Аудио кодек: AC3
Видео: 720x384 (1.88:1), 25 fps, XviD build 50 ~1850 kbps avg, 0.27 bit/pixel
Аудио: 48 kHz, AC3 Dolby Digital, 2/0 (L,R) ch, ~320 kbps
Cубтитры: отсутствуют
Общее
Полное имя : E:\T2\Doroga.bez.konca.2015.HDRip.avi
Формат : AVI
Формат/Информация : Audio Video Interleave
Размер файла : 1,37 Гбайт
Продолжительность : 1 ч. 29 м.
Общий поток : 2181 Кбит/сек
Программа кодирования : VirtualDubMod 1.5.10.3 | www.virtualdub-fr.org || (build 2550/release)
Библиотека кодирования : VirtualDubMod build 2550/release
Видео
Идентификатор : 0
Формат : MPEG-4 Visual
Профиль формата : Advanced [email protected]
Параметр BVOP формата : 2
Параметр QPel формата : Нет
Параметр GMC формата : Без точки перехода
Параметр матрицы формата : Default (MPEG)
Идентификатор кодека : XVID
Идентификатор кодека/Подсказка : XviD
Продолжительность : 1 ч. 29 м.
Битрейт : 1851 Кбит/сек
Ширина : 720 пикселей
Высота : 384 пикселя
Соотношение сторон : 1,85:1
Частота кадров : 25,000 кадров/сек
Цветовое пространство : YUV
Субдискретизация насыщенности : 4:2:0
Битовая глубина : 8 бит
Тип развёртки : Прогрессивная
Метод сжатия : С потерями
Бит/(Пиксели*Кадры) : 0.268
Размер потока : 1,16 Гбайт (85%)
Библиотека кодирования : XviD 1.2.1 (UTC 2008-12-04)
Аудио
Идентификатор : 1
Формат : AC-3
Формат/Информация : Audio Coding 3
Расширение режима : CM (complete main)
Параметр Endianness формата : Big
Идентификатор кодека : 2000
Продолжительность : 1 ч. 29 м.
Вид битрейта : Постоянный
Битрейт : 320 Кбит/сек
Каналы : 2 канала
Расположение каналов : Front: L R
Частота : 48,0 КГц
Битовая глубина : 16 бит
Метод сжатия : С потерями
Размер потока : 205 Мбайт (15%)
Выравнивание : Разделение по промежуткам
Продолжительность промежутка : 40 мс. (1,00 видеокадр)
Время предзагрузки промежутка : 500 мс.
Трейлер
Download / Скачать

Хотите скачать бесплатно? Зарегистрируйтесь на сайте (ссылка на регистрацию). Pirat.ca - самый быстрый торрент трекер в рунете!

Как скачивать  ·   Что такое торрент  ·   Рейтинг и ограничения

vovan200976

Флибустьер

Пост 14-Июн-2015 15:30 (спустя 22 минуты)

[Q] 

Спасибо!!! Лови бочку
[Профиль]  [ЛС] 

salavat1234

Гроза морей

Пост 14-Июн-2015 15:46 (спустя 16 минут)

[Q] 

Автору респект!!!
[Профиль]  [ЛС] 

UncleGB

Корсар

Пост 14-Июн-2015 20:34 (спустя 4 часа)

[Q] 

И почему я всегда прохожу мимо русТВ? Неужто стоящий фильмец?
[Профиль]  [ЛС] 

Jek@

Легенда

Пост 15-Июн-2015 18:07 (спустя 21 час)

[Q] 

Спасибо!!! .
[Профиль]  [ЛС] 

Роман1412

Морской Волк

Пост 18-Июн-2015 02:30 (спустя 2 дня 8 часов)

[Q] 

кто смотрел? как фильм?
[Профиль]  [ЛС] 

Пост 18-Июл-2015 22:19 (спустя 1 месяц)

Топик был перенесен из форума Новинки (HD|DVD|BD| TV|SAT|PDTV| - Rips) в форум Российские фильмы
aleksey99
 
Показать сообщения:    
Ответить на тему

Текущее время: Сегодня 02:20

Часовой пояс: GMT + 4



Вы не можете начинать темы
Вы не можете отвечать на сообщения
Вы не можете редактировать свои сообщения
Вы не можете удалять свои сообщения
Вы не можете голосовать в опросах
Вы не можете прикреплять файлы к сообщениям
Вы не можете скачивать файлы

▼ Вниз