ML
     
  Уважаемый Гость!
Вы можете поддержать проект и зарегистрироваться у наших партнеров - онлайн-стратегия MyLands. При регистрации в игре Вы получите код, который сможете активировать после регистрации на pirat.ca и получить 1000 дублонов.

Ваш код:
062e2babcc491faeb40d496cf9a498ac3df6cdd0
 
     

Портрет в сумерках (Ангелина Никонова) [2011 , Россия, драма, мелодрама, DVDRip]

Ответить на тему
 
Автор
Сообщение

Пост 25-Янв-2012 22:41

[Q] 

Smaq

Морской Волк

Портрет в сумерках-
Страна: Россия
Жанр: драма, мелодрама
Год выпуска: 2011
Продолжительность: 01:45:30-Перевод: Не требуется
Режиссер: Ангелина Никонова
В ролях: Ольга Дыховичная, Сергей Борисов, Сергей Голюдов, Роман Меринов, Галина Корень, Всеволод Воронов-Описание: Оказавшись не в том месте, и не в тот час, Марина, попадает в водоворот драматических событий. Пережитые унижение и боль изменяют весь ход ее стабильной благополучной жизни. Марина ищет возможности отомстить. Изо дня в день она возвращается на окраину города, где произошла судьбоносная встреча. Но когда Марине удаётся выследить зачинщика преступления, и когда она готова свершить правосудие, молодая женщина принимает совсем иное решение…-СЭМПЛ
-Качество: DVDRip
Контейнер: AVI
Видео: XviD, 720x400 (16:9), 1460 kbps, 25 fps, 0,203 bpp
Аудио: AC3 / 5.1 / 48 kHz / 384 kbps / 16 bit-
General
Complete name : D:\портрет в сумеркках\Portret.v.sumerkah.2011.XviD.DVDRip.ELEKTRI4KA.avi
Format : AVI
Format/Info : Audio Video Interleave
File size : 1.37 GiB
Duration : 1h 45mn
Overall bit rate : 1 854 Kbps
Movie name : Portret.v.sumerkah.2011.O.DVDRip
Writing application : VirtualDubMod 1.5.10.2 (build 2540/release)
Video
ID : 0
Format : MPEG-4 Visual
Format profile : Advanced [email protected]
Format settings, BVOP : 2
Format settings, QPel : No
Format settings, GMC : No warppoints
Format settings, Matrix : Custom
Codec ID : XVID
Codec ID/Hint : XviD
Duration : 1h 45mn
Bit rate : 1 461 Kbps
Width : 720 pixels
Height : 400 pixels
Display aspect ratio : 16:9
Frame rate : 25.000 fps
Color space : YUV
Chroma subsampling : 4:2:0
Bit depth : 8 bits
Scan type : Progressive
Compression mode : Lossy
Bits/(Pixel*Frame) : 0.203
Stream size : 1.08 GiB (79%)
Writing library : XviD 1.2.0.dev47 (UTC 2006-11-01)
Audio
ID : 1
Format : AC-3
Format/Info : Audio Coding 3
Mode extension : CM (complete main)
Codec ID : 2000
Duration : 1h 45mn
Bit rate mode : Constant
Bit rate : 384 Kbps
Channel(s) : 6 channels
Channel positions : Front: L C R, Side: L R, LFE
Sampling rate : 48.0 KHz
Bit depth : 16 bits
Compression mode : Lossy
Stream size : 290 MiB (21%)
Alignment : Split accross interleaves
Interleave, duration : 40 ms (1.00 video frame)
Interleave, preload duration : 500 ms
Download / Скачать

Хотите скачать бесплатно? Зарегистрируйтесь на сайте (ссылка на регистрацию). Pirat.ca - самый быстрый торрент трекер в рунете!

Как скачивать  ·   Что такое торрент  ·   Рейтинг и ограничения



Последний раз редактировалось: Smaq (2012-01-26 00:13), всего редактировалось 5 раз(а)

wic777

Корсар

Пост 25-Янв-2012 22:54 (спустя 13 минут)

[Q] 

спасибо!
[Профиль]  [ЛС] 

Пост 26-Янв-2012 00:20 (спустя 1 час 26 минут)

Топик был перенесен из форума Художественные фильмы (Зарубежное кино) в форум Новинки (HD|DVD|BD|TV|SAT|PDTV| - Rips)

Skinwalker
 

gulyaka777

Морской Волк

Пост 26-Янв-2012 00:52 (спустя 1 час 57 минут)

[Q] 

бальшая табе человеческая спасиба ))))
[Профиль]  [ЛС] 

ficus42

Корсар

Пост 26-Янв-2012 12:26 (спустя 11 часов)

[Q] 

Будем посмотреть.
[Профиль]  [ЛС] 

Hombre250

Морской Волк

Пост 26-Янв-2012 12:38 (спустя 11 минут)

[Q] 

спасибо, заценю
[Профиль]  [ЛС] 

ACKTOR

Штурман

Пост 29-Янв-2012 13:30 (спустя 3 дня)

[Q] 

спасибо!
[Профиль]  [ЛС] 
Показать сообщения:    
Ответить на тему

Текущее время: Сегодня 17:38

Часовой пояс: GMT + 4



Вы не можете начинать темы
Вы не можете отвечать на сообщения
Вы не можете редактировать свои сообщения
Вы не можете удалять свои сообщения
Вы не можете голосовать в опросах
Вы не можете прикреплять файлы к сообщениям
Вы не можете скачивать файлы

▼ Вниз