ML
     
  Уважаемый Гость!
Вы можете поддержать проект и зарегистрироваться у наших партнеров - онлайн-стратегия MyLands. При регистрации в игре Вы получите код, который сможете активировать после регистрации на pirat.ca и получить 1000 дублонов.

Ваш код:
69f316be79867e9bf99caee9682d20bb11964507
 
     

Под электрическими облаками (Алексей Герман мл.) [2015 г., драма, WEB-DLRip]

Ответить на тему
 
Автор
Сообщение

Пост 19-Июн-2015 18:56

[Q] 

LPPI

-Под электрическими облаками- Производство: Россия, Польша, Украина / Metrafilms, Linked Films, Apple Film Productions
Год выпуска: 2015 г.
Жанр: драма
Продолжительность: 02:17:05
Мировая премьера: 10 февраля 2015
Российская премьера: 4 июня 2015, «Парадиз»-Режиссер: Алексей Герман мл.
В ролях: Мераб Нинидзе, Анастасия Мельникова, Чулпан Хаматова, Вениамин Кац, Петр Гасовский, Константин Зелигер, Виктор Бугаков, Виктория Короткова, Луис Франк, Карим Пакачаков, Мария Цап-Страшилина, Анастасия Фомина, Мария Олейникова, Филипп Дьячков, Рамиль Салахутдинов, Алексей Вертинский, Сергей Сипливый, Ирина Соколова, Владимир Раннев, Дмитрий Воздвиженский-Описание: Действие фильма происходит в 2017 году. Мир находится в ожидании большой войны. Герои фильма живут совершенно разными жизнями, но каждый из них принадлежит к тем, кого в классической русской литературе называют «лишними людьми». Это история об их жизни, преодолениях и борьбе. Это также история одного недостроенного здания, вокруг которого оказались разбросаны их судьбы.- -Качество видео: WEB-DLRip
Контейнер: AVI
Видео кодек: XviD
Аудио кодек: AC3
Видео: 720x304 (2.37:1), 23.976 fps, XviD build 50 ~1239 kbps avg, 0.24 bit/pixel
Аудио: Russian: 48 kHz, AC3 Dolby Digital, 2/0 (L,R) ch, ~192 kbps
Cубтитры: отсутствуют-
General
Complete name : F:\Под электрическими облаками.WEB-DLRip.avi
Format : AVI
Format/Info : Audio Video Interleave
File size : 1.38 GiB
Duration : 2h 17mn
Overall bit rate : 1 441 Kbps
Writing application : VirtualDubMod 1.5.10.2 (build 2540/release)
Writing library : VirtualDubMod build 2540/release
Video
ID : 0
Format : MPEG-4 Visual
Format profile : Advanced [email protected]
Format settings, BVOP : 2
Format settings, QPel : No
Format settings, GMC : No warppoints
Format settings, Matrix : Custom
Codec ID : XVID
Codec ID/Hint : XviD
Duration : 2h 17mn
Bit rate : 1 240 Kbps
Width : 720 pixels
Height : 304 pixels
Display aspect ratio : 2.35:1
Frame rate : 23.976 fps
Color space : YUV
Chroma subsampling : 4:2:0
Bit depth : 8 bits
Scan type : Progressive
Compression mode : Lossy
Bits/(Pixel*Frame) : 0.236
Stream size : 1.19 GiB (86%)
Writing library : XviD 1.2.1 (UTC 2008-12-04)
Audio
ID : 1
Format : AC-3
Format/Info : Audio Coding 3
Mode extension : CM (complete main)
Format settings, Endianness : Big
Codec ID : 2000
Duration : 2h 17mn
Bit rate mode : Constant
Bit rate : 192 Kbps
Channel(s) : 2 channels
Channel positions : Front: L R
Sampling rate : 48.0 KHz
Compression mode : Lossy
Stream size : 188 MiB (13%)
Alignment : Split accross interleaves
Interleave, duration : 42 ms (1.00 video frame)
Interleave, preload duratio : 500 ms
-Скриншоты:-- -
Download / Скачать

Хотите скачать бесплатно? Зарегистрируйтесь на сайте (ссылка на регистрацию). Pirat.ca - самый быстрый торрент трекер в рунете!

Как скачивать  ·   Что такое торрент  ·   Рейтинг и ограничения

asuslx

Шкипер

Пост 19-Июн-2015 19:02 (спустя 6 минут)

[Q] 

поддайте газку, поддержу
[Профиль]  [ЛС] 

bordug-net

Шкипер

Пост 19-Июн-2015 19:06 (спустя 4 минуты)

[Q] 

спасибо Лови бочку
[Профиль]  [ЛС] 

surzis

Корсар

Пост 19-Июн-2015 20:39 (спустя 1 час 32 минуты)

[Q] 

стоит качать?

_________________
http://surzis.ru/ - заходи ко мне в блог! Советую только хорошие фильмы и игры!
[Профиль]  [ЛС] 

Skala973

Корсар

Пост 19-Июн-2015 22:09 (спустя 1 час 30 минут)

[Q] 

За раздачу спасибо.
Но вот фильм... Что-то я не могу въехать в творчество этого режиссёра. Ну слишком мутный фильм. Вообще какой-то грузовой и без финала.
Может кто-то и любит такое, но что-то не по мне.
[Профиль]  [ЛС] 

salavat1234

Гроза морей

Пост 20-Июн-2015 13:53 (спустя 15 часов)

[Q] 

На любителя Автору респект!!!
[Профиль]  [ЛС] 

Jek@

Легенда

Пост 20-Июн-2015 17:45 (спустя 3 часа)

[Q] 

Спасибо!!! .
[Профиль]  [ЛС] 

asuslx

Шкипер

Пост 20-Июн-2015 20:29 (спустя 2 часа 43 минуты)

[Q] 

ох уж мутно так мутно, причем нереалистично .. особенно в начале голлограмма из чьейто фамилии... у нас тренд щас чтобы не палились хотябы... и дальще минут 15 какойто депресняк, безумный... пойду лучше трансформеров смотреть)) ибо не под настроение... это мож позже гляну, дабы оценить замысел художника таки)
[Профиль]  [ЛС] 

Ganjik

Пост 22-Июн-2015 03:26 (спустя 1 день 6 часов)

[Q] 

опять "абстрактный" идиотизм от Германа?! фтопку этого "философа" отечественного говнопрома.
[Профиль]  [ЛС] 

byzzbyzz

Корсар

Пост 28-Июн-2015 14:37 (спустя 6 дней)

[Q] 

687294опять "абстрактный" идиотизм от Германа?! фтопку этого "философа" отечественного говнопрома.
Ганжик а я думал тя прет от философии... хаххахахахх
[Профиль]  [ЛС] 

zvezda_2s

Корсар

Пост 30-Июн-2015 17:46 (спустя 2 дня 3 часа)

[Q] 

Все равно за раздачу спасибо.
[Профиль]  [ЛС] 

Пост 24-Июл-2015 11:27 (спустя 23 дня)

Топик был перенесен из форума Новинки (HD|DVD|BD| TV|SAT|PDTV| - Rips) в форум Российские фильмы
aleksey99
 

balex26

Корсар

Пост 07-Авг-2015 18:29 (спустя 1 месяц 7 дней)

[Q] 

Скачал давно но все никак не могу навернуться на него. Боюсь будет удален после быстренькой перемотки...
[Профиль]  [ЛС] 
Показать сообщения:    
Ответить на тему

Текущее время: Сегодня 14:31

Часовой пояс: GMT + 4



Вы не можете начинать темы
Вы не можете отвечать на сообщения
Вы не можете редактировать свои сообщения
Вы не можете удалять свои сообщения
Вы не можете голосовать в опросах
Вы не можете прикреплять файлы к сообщениям
Вы не можете скачивать файлы

▼ Вниз