ML
     
  Уважаемый Гость!
Вы можете поддержать проект и зарегистрироваться у наших партнеров - онлайн-стратегия MyLands. При регистрации в игре Вы получите код, который сможете активировать после регистрации на pirat.ca и получить 1000 дублонов.

Ваш код:
bc31d8aef74c92e19ad67e34a8fa63c3b9b812fb
 
     

На Байкал (Михаил Козлов, Сергей Никонов) [ 2011 , Россия , мелодрама, комедия , DVDScreener]

Ответить на тему
 
Автор
Сообщение

Пост 26-Янв-2012 09:36

[Q] 

Smaq

Морской Волк

На Байкал-
Страна: Россия
Жанр: мелодрама, комедия
Год выпуска: 2011
Продолжительность: 01:26:27-Перевод: Не требуется
Режиссер: Михаил Козлов, Сергей Никонов
В ролях: Сергей Никонов (Валя), Евгений Жамцуев (Булат), Михаил Козлов (Степа), Александр Хамнушкин (Баир), Максим Покровский (прикольный дядька), Евгений Ганелин (преподаватель), Дарья Прокопьева (Нарана), Мария Галимова (подруга Нараны), Юлиана Шкабарова (подруга Нараны), Юлия Борисова (подруга Нараны), Наян Сагаев (отец Нараны), Артем Бурлов (жених Нараны)-Описание: Валентину, студенту института кинематографии Санкт-Петербурга, в качестве дипломной работы предстоит снять документальный фильм о Байкале. Его друзья напоминают ему о Степане, бывшем одногруппнике из Улан-Удэ. Он решает обратиться к нему за помощью.
В Улан-Удэ вместе со своими друзьями ребята попадают в различные курьезные ситуации. В течение трех они отдыхают на Байкале в Чивыркуйском заливе, помогают Валентину в съемках документального фильма и рассказывают о всех красотах «священного моря».- -Качество: DVDScreener
Контейнер: AVI
Видео: XviD, 704x400 (16:9), 1673 kbps, 24 fps, 0,248 bpp
Аудио: MP3 / 2.0 / 48 kHz / 128 kbps /-
General
Complete name : D:\на байкал\Na_Baikal.2011.DVDScr.avi
Format : AVI
Format/Info : Audio Video Interleave
File size : 1.09 GiB
Duration : 1h 26mn
Overall bit rate : 1 811 Kbps
Writing application : VirtualDubMod 1.5.10.2 (build 2540/release)
Writing library : VirtualDubMod build 2540/release
Video
ID : 0
Format : MPEG-4 Visual
Format profile : Advanced [email protected]
Format settings, BVOP : 1
Format settings, QPel : No
Format settings, GMC : No warppoints
Format settings, Matrix : Custom
Codec ID : XVID
Codec ID/Hint : XviD
Duration : 1h 26mn
Bit rate : 1 673 Kbps
Width : 704 pixels
Height : 400 pixels
Display aspect ratio : 16:9
Frame rate : 24.000 fps
Color space : YUV
Chroma subsampling : 4:2:0
Bit depth : 8 bits
Scan type : Progressive
Compression mode : Lossy
Bits/(Pixel*Frame) : 0.248
Stream size : 1.01 GiB (92%)
Writing library : XviD 1.2.1 (UTC 2008-12-04)
Audio
ID : 1
Format : MPEG Audio
Format version : Version 1
Format profile : Layer 3
Mode : Joint stereo
Mode extension : MS Stereo
Codec ID : 55
Codec ID/Hint : MP3
Duration : 1h 26mn
Bit rate mode : Constant
Bit rate : 128 Kbps
Channel(s) : 2 channels
Sampling rate : 48.0 KHz
Compression mode : Lossy
Stream size : 79.2 MiB (7%)
Alignment : Aligned on interleaves
Interleave, duration : 42 ms (1.00 video frame)
Interleave, preload duration : 504 ms
Writing library : LAME3.98r
Encoding settings : -m j -V 4 -q 2 -lowpass 17 -b 128
Download / Скачать

Хотите скачать бесплатно? Зарегистрируйтесь на сайте (ссылка на регистрацию). Pirat.ca - самый быстрый торрент трекер в рунете!

Как скачивать  ·   Что такое торрент  ·   Рейтинг и ограничения



Последний раз редактировалось: Smaq (2012-01-26 11:23), всего редактировалось 1 раз

Пост 26-Янв-2012 11:33 (спустя 1 час 57 минут)

Топик был перенесен из форума Художественные фильмы (Зарубежное кино) в форум Российские фильмы

Skinwalker
 

Hombre250

Морской Волк

Пост 26-Янв-2012 12:35 (спустя 2 часа 59 минут)

[Q] 

спасибо, посмотрю
[Профиль]  [ЛС] 

egorka st

Корсар

Пост 31-Янв-2012 13:48 (спустя 5 дней)

[Q] 

За раздачу спасибо. А фильм так себе, даже на тройку не тянет.

_________________
[Профиль]  [ЛС] 

^_^ Шеля ^_^

Шкипер

Пост 21-Фев-2012 16:01 (спустя 21 день)

[Q] 

[Профиль]  [ЛС] 

Shubnikoff

Морской Волк

Пост 13-Мар-2013 18:26 (спустя 1 год)

[Q] 

спасибо!
[Профиль]  [ЛС] 
Показать сообщения:    
Ответить на тему

Текущее время: Сегодня 12:00

Часовой пояс: GMT + 4



Вы не можете начинать темы
Вы не можете отвечать на сообщения
Вы не можете редактировать свои сообщения
Вы не можете удалять свои сообщения
Вы не можете голосовать в опросах
Вы не можете прикреплять файлы к сообщениям
Вы не можете скачивать файлы

▼ Вниз