ML
     
  Уважаемый Гость!
Вы можете поддержать проект и зарегистрироваться у наших партнеров - онлайн-стратегия MyLands. При регистрации в игре Вы получите код, который сможете активировать после регистрации на pirat.ca и получить 1000 дублонов.

Ваш код:
bb0cb47ee786a33f751af5a500dd264c9487bfac
 
     

Пионеры-герои (Наталья Кудряшова) [2015 г., драма, WEB-DLRip] (iTunes)

Ответить на тему
 
Автор
Сообщение

Пост 09-Июл-2015 15:21

[Q] 

LPPI

-Пионеры-герои- Производство: Россия
Год выпуска: 2015 г.
Жанр: драма
Продолжительность: 01:55:22
Мировая премьера: 6 февраля 2015
Российская премьера: 18 июня 2015, «Наше Кино»-Режиссер: Наталья Кудряшова
В ролях: Наталья Кудряшова, Дарья Мороз, Алексей Митин, Александр Усердин, Светлана Письмиченко, Ёла Санько, Юрий Кузнецов, Александр Обласов, Владимир Капустин, Жанна Демихова-Описание: Ольга, Катя и Андрей давно приехали в Москву, они дружат со школы. Они вполне успешны. Ольга — актриса, Катя — работает в крупном PR-агентстве, Андрей политический аналитик. Они покупают машины, берут ипотеки, строят дачи. Живут как все. Но это не приносит им ни счастья, ни удовлетворения. Ощущение, «что все вроде нормально, но что-то не так» — лейтмотив жизни сегодняшних тридцатилетних. Их детство пришлось на советскую пору — когда дети мечтали о подвигах, верили в шпионов и светлое будущее, и никто не ожидал, что мечту о подвиге заменит мечта о стабильности. Люди больше не мечтают о великом. Они просто живут.- -Качество видео: WEB-DLRip
Контейнер: AVI
Видео кодек: XviD
Аудио кодек: AC3
Видео: 720x304 (2.37:1), 24 fps, XviD build 50 ~1411 kbps avg, 0.27 bit/pixel
Аудио: Russian: 48 kHz, AC3 Dolby Digital, 3/2 (L,C,R,l,r) + LFE ch, ~384 kbps
Cубтитры: отсутствуют-
General
Complete name : F:\p10HePY.geP0i.2015.O.WEB-DLRip.1.46Gb.avi
Format : AVI
Format/Info : Audio Video Interleave
File size : 1.45 GiB
Duration : 1h 55mn
Overall bit rate : 1 805 Kbps
Writing application : VirtualDubMod 1.5.10.2 (build 2540/release)
Writing library : VirtualDubMod build 2540/release
Video
ID : 0
Format : MPEG-4 Visual
Format profile : Advanced [email protected]
Format settings, BVOP : 2
Format settings, QPel : No
Format settings, GMC : No warppoints
Format settings, Matrix : Default (MPEG)
Codec ID : XVID
Codec ID/Hint : XviD
Duration : 1h 55mn
Bit rate : 1 412 Kbps
Width : 720 pixels
Height : 304 pixels
Display aspect ratio : 2.35:1
Frame rate : 24.000 fps
Color space : YUV
Chroma subsampling : 4:2:0
Bit depth : 8 bits
Scan type : Progressive
Compression mode : Lossy
Bits/(Pixel*Frame) : 0.269
Stream size : 1.14 GiB (78%)
Writing library : XviD 1.2.1 (UTC 2008-12-04)
Audio
ID : 1
Format : AC-3
Format/Info : Audio Coding 3
Mode extension : CM (complete main)
Format settings, Endianness : Big
Codec ID : 2000
Duration : 1h 55mn
Bit rate mode : Constant
Bit rate : 384 Kbps
Channel(s) : 6 channels
Channel positions : Front: L C R, Side: L R, LFE
Sampling rate : 48.0 KHz
Compression mode : Lossy
Stream size : 317 MiB (21%)
Alignment : Split accross interleaves
Interleave, duration : 42 ms (1.00 video frame)
Interleave, preload duratio : 500 ms
-Скриншоты:-- -
Download / Скачать

Хотите скачать бесплатно? Зарегистрируйтесь на сайте (ссылка на регистрацию). Pirat.ca - самый быстрый торрент трекер в рунете!

Как скачивать  ·   Что такое торрент  ·   Рейтинг и ограничения

Jek@

Легенда

Пост 09-Июл-2015 19:23 (спустя 4 часа)

[Q] 

Спасибо!!! .
[Профиль]  [ЛС] 

salavat1234

Гроза морей

Пост 09-Июл-2015 23:37 (спустя 4 часа)

[Q] 

На любителя Автору респект!!!
[Профиль]  [ЛС] 

logr

Морской Волк

151

Пост 10-Июл-2015 00:17 (спустя 39 минут)

[Q] 

Спасибо!!! Лови бочку
[Профиль]  [ЛС] 

лысый 777

Морской Волк

Пост 10-Июл-2015 09:44 (спустя 9 часов)

[Q] 

Спасибо!!! Супер! ,,,
[Профиль]  [ЛС] 

ТАЛИ

Корсар

Пост 10-Июл-2015 23:35 (спустя 13 часов)

[Q] 

Фильм хороший, местами даже талантливый. Но совершенно любительский. Может это манера съемки такая, просто я не догоняю... Но полное ощущение, что оператор и монтажер, простите, рукожопы. Ну и, конечно, аудитория у фильма - исключительно те, чье детство пришлось на 80-е. Только они способны оценить, прочувствовать и понять данное творение...
Автору респект!!!
[Профиль]  [ЛС] 

bolin

Флибустьер

Пост 11-Июл-2015 21:23 (спустя 21 час)

[Q] 

Ну а и посмотрю что за фильм описание зацепило
[Профиль]  [ЛС] 

zvezda_2s

Корсар

Пост 17-Июл-2015 15:40 (спустя 5 дней)

[Q] 

А ну попробуем!
[Профиль]  [ЛС] 

KoNiaL_KCC

Гроза морей

Пост 21-Июл-2015 18:22 (спустя 4 дня)

[Q] 

фильм по факту ни о чем, может это новая фишка Российского кино cx Автору респект!!!
[Профиль]  [ЛС] 

fgstern

Лоцман

Пост 30-Июл-2015 22:15 (спустя 9 дней)

[Q] 

это фишка с тех пор, как оно вообще возникло. Под целевую аудиторию вродь попадаю, а тошнит. Первое и последнее российское "произведение", что я скачал =)
[Профиль]  [ЛС] 

ГИППАРРД

Морской Волк

2

Пост 07-Авг-2015 10:47 (спустя 7 дней)

[Q] 

Замечательно что наконец-то наша взяла паказывают про октябрят,пионеров,комсомольцев, не забудь ЦК КПСС!!!!!))))
Супер!
[Профиль]  [ЛС] 

mkletters

Штурман

Пост 10-Авг-2015 01:04 (спустя 2 дня 14 часов)

[Q] 

Крутое кино! Смотрел в кинотеатре.
[Профиль]  [ЛС] 

paradox113

Шкипер

16

Пост 07-Мар-2016 00:40 (спустя 6 месяцев 27 дней)

[Q] 

Фильм впечатлил. Для тех, чье детство прошло в 80-е, на мой взгляд, смотреть однозначно (кто вырос позднее тем будет тяжело понять то время, но надеюсь, может побудить заглянуть в ту эпоху посмотрев старые добрые советские фильмы или заглянуть в наше недавнее прошлое через жизнь своих собственных родителей, дедушек и бабушек). Несмотря на пессимизм в конце фильм позволяет реально сравнить "те" и "эти" ценности и найти для себя что-то действительно настоящее...
[Профиль]  [ЛС] 
Показать сообщения:    
Ответить на тему

Текущее время: Сегодня 02:18

Часовой пояс: GMT + 4



Вы не можете начинать темы
Вы не можете отвечать на сообщения
Вы не можете редактировать свои сообщения
Вы не можете удалять свои сообщения
Вы не можете голосовать в опросах
Вы не можете прикреплять файлы к сообщениям
Вы не можете скачивать файлы

▼ Вниз