ML
     
  Уважаемый Гость!
Вы можете поддержать проект и зарегистрироваться у наших партнеров - онлайн-стратегия MyLands. При регистрации в игре Вы получите код, который сможете активировать после регистрации на pirat.ca и получить 1000 дублонов.

Ваш код:
69f316be79867e9bf99caee9682d20bb11964507
 
     

Да и да (Валерия Гай Германика) [2014 г., драма, WEB-DLRip] (iTunes)

Ответить на тему
 
Автор
Сообщение

Пост 10-Июл-2015 17:01

[Q] 

LPPI

-Да и да- Производство: Россия / Art Pictures Studio, ВВП Альянс
Год выпуска: 2014 г.
Жанр: драма
Продолжительность: 01:57:26
Мировая премьера: 26 марта 2014
Российская премьера: 26 июня 2014, «Art Pictures»
ре-релиз (РФ): 12 марта 2015, «Централ Партнершип»-Режиссер: Валерия Гай Германика
В ролях: Агния Кузнецова, Александр Виноградов, Владимир Дубосарский, Александр Горчилин, Оксана Земляникова, Юрий Трубин, Лариса Баранова, Николай Шептулин-Описание: Паренек — начинающий современный художник, девушка — начинающая школьная учительница. Случайное сближение кладет начало горячей и короткой любви. Некрасивая случайность заставляет расстаться. Но однажды увидев мир глазами любимого, учительница вернулась в свой прежний мир художницей, и не может избавиться от нового зрения, от дара живописца: непрошеной памяти о несложившейся любви.- -Качество видео: WEB-DLRip
Контейнер: AVI
Видео кодек: XviD
Аудио кодек: AC3
Видео: 720x384 (1.88:1), 24 fps, XviD build 50 ~1987 kbps avg, 0.30 bit/pixel
Аудио: Russian: 48 kHz, AC3 Dolby Digital, 3/2 (L,C,R,l,r) + LFE ch, ~384 kbps
Cубтитры: отсутствуют-
General
Complete name : F:\Da.i.da.2014.WEB-DLRip.1.95.GB.avi
Format : AVI
Format/Info : Audio Video Interleave
File size : 1.95 GiB
Duration : 1h 57mn
Overall bit rate : 2 381 Kbps
Writing application : VirtualDubMod 1.5.10.2 (build 2540/release)
Writing library : VirtualDubMod build 2540/release
Video
ID : 0
Format : MPEG-4 Visual
Format profile : Advanced [email protected]
Format settings, BVOP : 2
Format settings, QPel : No
Format settings, GMC : No warppoints
Format settings, Matrix : Default (MPEG)
Codec ID : XVID
Codec ID/Hint : XviD
Duration : 1h 57mn
Bit rate : 1 988 Kbps
Width : 720 pixels
Height : 384 pixels
Display aspect ratio : 1.85:1
Frame rate : 24.000 fps
Color space : YUV
Chroma subsampling : 4:2:0
Bit depth : 8 bits
Scan type : Progressive
Compression mode : Lossy
Bits/(Pixel*Frame) : 0.300
Stream size : 1.63 GiB (83%)
Writing library : XviD 1.2.1 (UTC 2008-12-04)
Audio
ID : 1
Format : AC-3
Format/Info : Audio Coding 3
Mode extension : CM (complete main)
Format settings, Endianness : Big
Codec ID : 2000
Duration : 1h 57mn
Bit rate mode : Constant
Bit rate : 384 Kbps
Channel(s) : 6 channels
Channel positions : Front: L C R, Side: L R, LFE
Sampling rate : 48.0 KHz
Compression mode : Lossy
Stream size : 323 MiB (16%)
Alignment : Split accross interleaves
Interleave, duration : 42 ms (1.00 video frame)
Interleave, preload duratio : 500 ms
-Скриншоты:-- -
Download / Скачать

Хотите скачать бесплатно? Зарегистрируйтесь на сайте (ссылка на регистрацию). Pirat.ca - самый быстрый торрент трекер в рунете!

Как скачивать  ·   Что такое торрент  ·   Рейтинг и ограничения

SCRET

Корсар

Пост 11-Июл-2015 21:20 (спустя 1 день 4 часа)

[Q] 

Спасибо!!! Пиратка рулит!
[Профиль]  [ЛС] 

italiano711

Гроза морей

Пост 11-Июл-2015 21:33 (спустя 12 минут)

[Q] 

Ну и как фильм?
[Профиль]  [ЛС] 

Полтос

Флибустьер

Пост 12-Июл-2015 00:54 (спустя 3 часа)

[Q] 

Ссылка Кинопоиска битая. Есть объективная информация о фильме?

_________________
Первый закон Прапорщика: Всё что поднимаемо - относительно!)
[Профиль]  [ЛС] 

truck

Шкипер

Пост 13-Июл-2015 21:03 (спустя 1 день 20 часов)

[Q] 

Автору респект!!!
[Профиль]  [ЛС] 

logr

Морской Волк

151

Пост 15-Июл-2015 01:03 (спустя 1 день 4 часа)

[Q] 

Честно говоря На любителя
[Профиль]  [ЛС] 
Показать сообщения:    
Ответить на тему

Текущее время: Сегодня 14:29

Часовой пояс: GMT + 4



Вы не можете начинать темы
Вы не можете отвечать на сообщения
Вы не можете редактировать свои сообщения
Вы не можете удалять свои сообщения
Вы не можете голосовать в опросах
Вы не можете прикреплять файлы к сообщениям
Вы не можете скачивать файлы

▼ Вниз