ML
     
  Уважаемый Гость!
Вы можете поддержать проект и зарегистрироваться у наших партнеров - онлайн-стратегия MyLands. При регистрации в игре Вы получите код, который сможете активировать после регистрации на pirat.ca и получить 1000 дублонов.

Ваш код:
1a5b0a965618b2c406d4279ec9924ee6282c60cf
 
     

Батальонъ (Дмитрий Месхиев) [2014 г., драма, военный, история, WEB-DLRip]

Ответить на тему
 
Автор
Сообщение

Пост 16-Июл-2015 10:28

[Q] 

ara1205

-Батальонъ-- Производство: Россия
Год выпуска: 2014 г.
Жанр: драма, военный, история
Продолжительность: 02:03:4-Режиссер: Дмитрий Месхиев-В ролях: Мария Аронова, Мария Кожевникова, Ирина Рахманова, Марат Башаров, Янина Малинчик, Евгений Дятлов, Яков Шамшин, Алёна Кучкова, Валерия Шкирандо, Николай Аузин, Владимир Зайцев, Екатерина Вилкова, Сергей Тэсслер, Юлия Яновская (II), Дмитрий Шевченко, Артур Ваха-Описание: Весна 1917-го года. Февральская революция изменила жизнь России и ход Великой войны. Государь уже отрёкся от престола. В окопах, где противостояние с немцами длится уже не один год, вовсю ведут свою пропаганду большевики. Они призывают к миру с неприятелем. Российское офицерство фактически ничего не может решить без одобрения так называемых солдатских комитетов. Армия находится на пороге окончательного разложения.
По приказу Временного правительства для поднятия боевого духа создаётся женский «Батальон смерти» под командованием георгиевского кавалера Марии Бочкарёвой. Своей службой «Батальон смерти» подаёт пример храбрости, мужества и спокойствия, поднимает дух солдат и доказывает, что каждая из этих женщин-героев достойна звания воина русской армии.- -Качество видео: WEB-DLRip
Контейнер: AVI
Видео кодек: XviD
Аудио кодек: AC3
Видео: 720x304, 25.000 fps, 1191 kbps avg, 0.218 bit/pixel
Аудио: 48 kHz, AC3 Dolby Digital, 3/2 (L,C,R,l,r) + LFE ch, ~384 kbps
Cубтитры: отсутствуют-
Общее
Полное имя : C:\Users\Roman\Pictures\Заказ\Батальонъ\Batalion.2015.O.WEB-DLRip.1400MB.avi
Формат : AVI
Формат/Информация : Audio Video Interleave
Размер файла : 1,37 Гбайт
Продолжительность : 2 ч. 3 м.
Общий поток : 1584 Кбит/сек
Программа кодирования : VirtualDubMod 1.5.10.2 (build 2540/release)
Библиотека кодирования : VirtualDubMod build 2540/release
Видео
Идентификатор : 0
Формат : MPEG-4 Visual
Профиль формата : Advanced [email protected]
Параметр BVOP формата : 2
Параметр QPel формата : Нет
Параметр GMC формата : Без точки перехода
Параметр матрицы формата : Default (MPEG)
Идентификатор кодека : XVID
Идентификатор кодека/Подсказка : XviD
Продолжительность : 2 ч. 3 м.
Битрейт : 1191 Кбит/сек
Ширина : 720 пикселей
Высота : 304 пикселя
Соотношение сторон : 2,35:1
Частота кадров : 25,000 кадров/сек
Цветовое пространство : YUV
Субдискретизация насыщенности : 4:2:0
Битовая глубина : 8 бит
Тип развёртки : Прогрессивная
Метод сжатия : С потерями
Бит/(Пиксели*Кадры) : 0.218
Размер потока : 1,03 Гбайт (75%)
Библиотека кодирования : XviD 1.2.1 (UTC 2008-12-04)
Аудио
Идентификатор : 1
Формат : AC-3
Формат/Информация : Audio Coding 3
Расширение режима : CM (complete main)
Параметр Endianness формата : Big
Идентификатор кодека : 2000
Продолжительность : 2 ч. 3 м.
Вид битрейта : Постоянный
Битрейт : 384 Кбит/сек
Каналы : 6 каналов
Расположение каналов : Front: L C R, Side: L R, LFE
Частота : 48,0 КГц
Битовая глубина : 16 бит
Метод сжатия : С потерями
Размер потока : 340 Мбайт (24%)
Выравнивание : Разделение по промежуткам
Продолжительность промежутка : 40 мс. (1,00 видеокадр)
Время предзагрузки промежутка : 500 мс.
-
-
Download / Скачать

Хотите скачать бесплатно? Зарегистрируйтесь на сайте (ссылка на регистрацию). Pirat.ca - самый быстрый торрент трекер в рунете!

Как скачивать  ·   Что такое торрент  ·   Рейтинг и ограничения

Jek@

Легенда

Пост 16-Июл-2015 17:05 (спустя 6 часов)

[Q] 

Спасибо!!! .
[Профиль]  [ЛС] 

kuzmin

Штурман

Пост 16-Июл-2015 17:21 (спустя 15 минут)

[Q] 

Спасибо!!!
Лови бочку
[Профиль]  [ЛС] 

ellilight

Штурман

Пост 16-Июл-2015 22:30 (спустя 5 часов)

[Q] 

http://pirat.ca.prx2.unblocksit.es/images/smiles/47.png
[Профиль]  [ЛС] 

SCRET

Корсар

Пост 18-Июл-2015 11:15 (спустя 1 день 12 часов)

[Q] 

Спасибо!!! Пиратка рулез!!!
[Профиль]  [ЛС] 

Innesa

Шкипер

Пост 19-Июл-2015 09:39 (спустя 22 часа)

[Q] 

помоему Абсолютный бред, лично мое мнение Лови бочку
[Профиль]  [ЛС] 

Михалыч9966

Морской Волк

Пост 20-Июл-2015 13:23 (спустя 1 день 3 часа)

[Q] 

692038помоему Абсолютный бред, лично мое мнение Лови бочку
зря вы так считаете, либо вы не смотрели фильм или вам не понравился постер. Что касаемо самого фильма, то смотреть желательно с 50 минуты, смысла нет вникать в военную бытовуху около часа, в фильме про войну, вобщем-то, и интересна сама война, а не сопли, любовь и грязные портянки. По мне- фильм на 4+, но оговорюсь, после 50 минуты.
[Профиль]  [ЛС] 

Mollchun

Корсар

926

Пост 21-Июл-2015 18:49 (спустя 1 день 5 часов)

[Q] 

Надо глянуть...А то фильм вышел в прошлом году, а только появился...Видать прятали долго, хочется знать, почему.

_________________
[Профиль]  [ЛС] 

salavat1234

Гроза морей

Пост 23-Июл-2015 18:03 (спустя 1 день 23 часа)

[Q] 

Спасибо!!!
[Профиль]  [ЛС] 

Oleg2015

Юнга

Пост 24-Июл-2015 20:12 (спустя 1 день 2 часа)

[Q] 

Лови бочку Круто, фильм супер!!!!!!!
[Профиль]  [ЛС] 

jahsmoke

Штурман

Пост 26-Июл-2015 00:16 (спустя 1 день 4 часа)

[Q] 

очередная псевдопатриотическая параша

_________________
As your attorney, I advise you to drive at top speed, it'll be a god damn miracle if we can get there before you turn into a wild animal...
[Профиль]  [ЛС] 

the_lame

Корсар

Пост 26-Июл-2015 19:03 (спустя 18 часов)

[Q] 

693029очередная псевдопатриотическая параша
и шо вам не нравится, уважаемый?
Фильм силен, он не только и не столько про войну. Обязателен к просмотру.
[Профиль]  [ЛС] 

kinstintin

Гроза морей

Пост 13-Янв-2016 10:25 (спустя 5 месяцев 17 дней)

[Q] 

мнений много и все противоречивые - надо самому посмотреть cx
[Профиль]  [ЛС] 
Показать сообщения:    
Ответить на тему

Текущее время: Сегодня 23:47

Часовой пояс: GMT + 4



Вы не можете начинать темы
Вы не можете отвечать на сообщения
Вы не можете редактировать свои сообщения
Вы не можете удалять свои сообщения
Вы не можете голосовать в опросах
Вы не можете прикреплять файлы к сообщениям
Вы не можете скачивать файлы

▼ Вниз