ML
     
  Уважаемый Гость!
Вы можете поддержать проект и зарегистрироваться у наших партнеров - онлайн-стратегия MyLands. При регистрации в игре Вы получите код, который сможете активировать после регистрации на pirat.ca и получить 1000 дублонов.

Ваш код:
1a5b0a965618b2c406d4279ec9924ee6282c60cf
 
     

Дабл трабл (Эдуард Оганесян) [2015 г., комедия, DVDRip]

Ответить на тему
 
Автор
Сообщение

Пост 17-Июл-2015 08:37

[Q] 

aleksey99

--Дабл трабл--«Беда не приходит одна»-- Производство: Россия / Базелевс Продакшн
Год выпуска: 2015 г.
Жанр: комедия
Продолжительность: 01:20:32--Мировая премьера: 4 июня 2015
Российская премьера: 28 мая 2015, «Bazelevs Distribution», «Двадцатый Век Фокс СНГ»
Дата выхода DVD: 9 июля 2015, «CP Дистрибуция»--Режиссер: Эдуард Оганесян--В ролях: Даниил Белых, Екатерина Варнава, Лера Куликова, Даниил Кузнец, Слава, Сергей Мезенцев, Владимир Тишко, Юлия Морозова, Лена Горностаева, Саймон--Описание: Роман ведет холостяцкий образ жизни и свое шоу на радио. Как заправский психолог он раздает советы слушателям, приправляя их колкими шутками. Пока одна из них не оборачивается против него самого. На вопрос 20-летней Алены, ехать ли ей к отцу, Роман отвечает «Конечно! Я был бы рад». Он не знает, что в эфире — плод его случайной связи, а он сам в одночасье стал не только отцом, но и дедушкой Алениного сына. Новоиспеченные родственники погружают в ад беззаботного Романа и его девушку Сашу, светскую львицу и владелицу радиостанции. Не меньшее разочарование ждет и Алену. Только чудо сможет сделать их четверых одной семьей…-- --Качество видео: DVDRip
Контейнер: AVI
Видео кодек: XviD
Аудио кодек: AC3
Видео: 720x304 (2.37:1), 25 fps, XviD build 50 ~1970 kbps avg, 0.36 bit/pixel
Аудио: 48 kHz, AC3 Dolby Digital, 3/2 (L,C,R,l,r) + LFE ch, ~448 kbps
Cубтитры: отсутствуют
Общее
Полное имя : D:\Dabl.Trabl.2015.O.DVDRip.avi
Формат : AVI
Формат/Информация : Audio Video Interleave
Размер файла : 1,37 Гбайт
Продолжительность : 1 ч. 20 м.
Общий поток : 2429 Кбит/сек
Программа кодирования : VirtualDubMod 1.5.10.3 | www.virtualdub-fr.org || (build 2550/release)
Библиотека кодирования : VirtualDubMod build 2550/release
Видео
Идентификатор : 0
Формат : MPEG-4 Visual
Профиль формата : Advanced [email protected]
Параметр BVOP формата : 3
Параметр QPel формата : Нет
Параметр GMC формата : Без точки перехода
Параметр матрицы формата : Выборочная
Идентификатор кодека : XVID
Идентификатор кодека/Подсказка : XviD
Продолжительность : 1 ч. 20 м.
Битрейт : 1971 Кбит/сек
Ширина : 720 пикселей
Высота : 304 пикселя
Соотношение сторон : 2,35:1
Частота кадров : 25,000 кадров/сек
Цветовое пространство : YUV
Субдискретизация насыщенности : 4:2:0
Битовая глубина : 8 бит
Тип развёртки : Прогрессивная
Метод сжатия : С потерями
Бит/(Пиксели*Кадры) : 0.360
Размер потока : 1,11 Гбайт (81%)
Библиотека кодирования : XviD 1.2.1 (UTC 2008-12-04)
Аудио
Идентификатор : 1
Формат : AC-3
Формат/Информация : Audio Coding 3
Расширение режима : CM (complete main)
Параметр Endianness формата : Big
Идентификатор кодека : 2000
Продолжительность : 1 ч. 20 м.
Вид битрейта : Постоянный
Битрейт : 448 Кбит/сек
Каналы : 6 каналов
Расположение каналов : Front: L C R, Side: L R, LFE
Частота : 48,0 КГц
Битовая глубина : 16 бит
Метод сжатия : С потерями
Размер потока : 258 Мбайт (18%)
Выравнивание : Разделение по промежуткам
Продолжительность промежутка : 40 мс. (1,00 видеокадр)
Время предзагрузки промежутка : 500 мс.
Трейлер
Download / Скачать

Хотите скачать бесплатно? Зарегистрируйтесь на сайте (ссылка на регистрацию). Pirat.ca - самый быстрый торрент трекер в рунете!

Как скачивать  ·   Что такое торрент  ·   Рейтинг и ограничения

ellilight

Штурман

Пост 17-Июл-2015 10:31 (спустя 1 час 54 минуты)

[Q] 

Спасибо за раздачу!
[Профиль]  [ЛС] 

maxvel911

Морской Волк

Пост 19-Июл-2015 00:25 (спустя 1 день 13 часов)

[Q] 

Я этот шедевр, больше 10 минут не смог посмотреть. Автору за труды спасибо.
[Профиль]  [ЛС] 

polozm

Легенда

Пост 20-Июл-2015 22:29 (спустя 1 день 22 часа)

[Q] 

Неожиданно очень понравился фильм .жене тоже понравился :)
Спасибо за раздачу

_________________
mac mini -2.0 GHz Intel Core i7/ 8 GB DDR3. /Intel HD 3000(512mb)OS X 10.9 Mavericks
[Профиль]  [ЛС] 

Mollchun

Корсар

926

Пост 21-Июл-2015 15:05 (спустя 16 часов)

[Q] 

Не, не комедия....Заурядная семейная мелодрама. Один раз к просмотру (на любителя) и в топку. Е. Варнаву обратно в Comedy Woman и по возможности не выпускать от туда...Никогда...

_________________
[Профиль]  [ЛС] 

grosboy

Флибустьер

Пост 23-Июл-2015 19:24 (спустя 2 дня 4 часа)

[Q] 

Хороший фильм. На разок глянуть вполне пойдёт Спасибо!!! Автору респект!!!

_________________
Щастье есть - его не может не быть...
[Профиль]  [ЛС] 

днепрянен

Морской Волк

Пост 02-Дек-2015 04:00 (спустя 4 месяца 9 дней)

[Q] 

Посмотрим....
[Профиль]  [ЛС] 
Показать сообщения:    
Ответить на тему

Текущее время: Сегодня 23:50

Часовой пояс: GMT + 4



Вы не можете начинать темы
Вы не можете отвечать на сообщения
Вы не можете редактировать свои сообщения
Вы не можете удалять свои сообщения
Вы не можете голосовать в опросах
Вы не можете прикреплять файлы к сообщениям
Вы не можете скачивать файлы

▼ Вниз