ML
     
  Уважаемый Гость!
Вы можете поддержать проект и зарегистрироваться у наших партнеров - онлайн-стратегия MyLands. При регистрации в игре Вы получите код, который сможете активировать после регистрации на pirat.ca и получить 1000 дублонов.

Ваш код:
59354507ba913a0948d1a8f2e30f2e04c4cd7b9b
 
     

Смайлик (Тамара Аленикова) [2014 г., мелодрама, HDTVRip] Original (RUS)

Ответить на тему
 
Автор
Сообщение

Пост 18-Июл-2015 15:50

[Q] 

aleksey99

--Смайлик-- Производство: Россия, Продюсерская кинокомпания «Киномир»
Год выпуска: 2014 г.
Жанр: мелодрама
Продолжительность: 01:27:15--Режиссер: Тамара Аленикова--В ролях: Александра Лупашко, Антон Соколов (II), Татьяна Яковенко, Витас Эйзенах, Мария Поезжаева, Мария Бушмелёва, Александр Ратников, Александр Чевычелов, Алексей Суренский, Ольга Хохлова, Валентина Светлова (II)--Описание: Вы верите в любовь с первого взгляда в современном мире безумных скоростей и бесконечных СМС? Разные люди находят друг друга и знакомятся в социальных сетях. У каждого из них — своя устроенная жизнь, привычки, привязанности. Казалось бы, ничего не предвещает судьбоносных перемен… Что может поколебать этот устойчивый и привычный мир? Разве что, случайный смайлик на мониторе… И безумное предложение встретиться… Смайлик — величайшее изобретение нашего времени! «Смайлик» — три новеллы, три истории любви с непредсказуемой развязкой.-- --Качество видео: HDTVRip
Контейнер: AVI
Видео кодек: XviD
Аудио кодек: AC3
Видео: 720x384 (1.88:1), 25 fps, XviD build 73 ~2042 kbps avg, 0.29 bit/pixel
Аудио: 48 kHz, AC3 Dolby Digital, 2/0 (L,R) ch, ~192 kbps
Cубтитры: отсутствуют
Общее
Полное имя : E:\T2\Smaylik.2014.HDTVRip.avi
Формат : AVI
Формат/Информация : Audio Video Interleave
Размер файла : 1,37 Гбайт
Продолжительность : 1 ч. 27 м.
Общий поток : 2245 Кбит/сек
Программа кодирования : VirtualDubMod 1.5.10.3 | www.virtualdub-fr.org || (build 2550/release)
Библиотека кодирования : VirtualDubMod build 2550/release
Видео
Идентификатор : 0
Формат : MPEG-4 Visual
Профиль формата : Advanced [email protected]
Параметр BVOP формата : 1
Параметр QPel формата : Нет
Параметр GMC формата : Без точки перехода
Параметр матрицы формата : Выборочная
Идентификатор кодека : XVID
Идентификатор кодека/Подсказка : XviD
Продолжительность : 1 ч. 27 м.
Битрейт : 2043 Кбит/сек
Ширина : 720 пикселей
Высота : 384 пикселя
Соотношение сторон : 1,85:1
Частота кадров : 25,000 кадров/сек
Цветовое пространство : YUV
Субдискретизация насыщенности : 4:2:0
Битовая глубина : 8 бит
Тип развёртки : Прогрессивная
Метод сжатия : С потерями
Бит/(Пиксели*Кадры) : 0.296
Размер потока : 1,25 Гбайт (91%)
Библиотека кодирования : XviD 73
Аудио
Идентификатор : 1
Формат : AC-3
Формат/Информация : Audio Coding 3
Расширение режима : CM (complete main)
Параметр Endianness формата : Big
Идентификатор кодека : 2000
Продолжительность : 1 ч. 27 м.
Вид битрейта : Постоянный
Битрейт : 192 Кбит/сек
Каналы : 2 канала
Расположение каналов : Front: L R
Частота : 48,0 КГц
Битовая глубина : 16 бит
Метод сжатия : С потерями
Размер потока : 120 Мбайт (9%)
Выравнивание : Разделение по промежуткам
Продолжительность промежутка : 40 мс. (1,00 видеокадр)
Время предзагрузки промежутка : 500 мс.
Download / Скачать

Хотите скачать бесплатно? Зарегистрируйтесь на сайте (ссылка на регистрацию). Pirat.ca - самый быстрый торрент трекер в рунете!

Как скачивать  ·   Что такое торрент  ·   Рейтинг и ограничения

Показать сообщения:    
Ответить на тему

Текущее время: Сегодня 16:07

Часовой пояс: GMT + 4



Вы не можете начинать темы
Вы не можете отвечать на сообщения
Вы не можете редактировать свои сообщения
Вы не можете удалять свои сообщения
Вы не можете голосовать в опросах
Вы не можете прикреплять файлы к сообщениям
Вы не можете скачивать файлы

▼ Вниз