ML
     
  Уважаемый Гость!
Вы можете поддержать проект и зарегистрироваться у наших партнеров - онлайн-стратегия MyLands. При регистрации в игре Вы получите код, который сможете активировать после регистрации на pirat.ca и получить 1000 дублонов.

Ваш код:
93dbf9fbdfa06c41d3b5a2c3921149ba36168c41
 
     

На Байкал (Михаил Козлов, Сергей Никонов) [2011 г., мелодрама, комедия, DVDScreener]

Ответить на тему
 
Автор
Сообщение

Пост 26-Янв-2012 15:43

[Q] 

ev5

Морской Волк

На Байкал Год выпуска: 2011
Жанр: мелодрама, комедия
Продолжительность: 01:26:27
Режиссер: Михаил Козлов, Сергей Никонов
В ролях: Сергей Никонов (Валя), Евгений Жамцуев (Булат), Михаил Козлов (Степа), Александр Хамнушкин (Баир), Максим Покровский (прикольный дядька), Евгений Ганелин (преподаватель), Дарья Прокопьева (Нарана), Мария Галимова (подруга Нараны), Юлиана Шкабарова (подруга Нараны), Юлия Борисова (подруга Нараны), Наян Сагаев (отец Нараны), Артем Бурлов (жених Нараны)
Описание: Валентину, студенту института кинематографии Санкт-Петербурга, в качестве дипломной работы предстоит снять документальный фильм о Байкале. Его друзья напоминают ему о Степане, бывшем одногруппнике из Улан-Удэ. Он решает обратиться к нему за помощью.
В Улан-Удэ вместе со своими друзьями ребята попадают в различные курьезные ситуации. В течение трех они отдыхают на Байкале в Чивыркуйском заливе, помогают Валентину в съемках документального фильма и рассказывают о всех красотах «священного моря».
СэмпЛ
D:\На байкал.avi
General
Complete name : D:\На байкал.avi
Format : AVI
Format/Info : Audio Video Interleave
File size : 695 MiB
Duration : 1h 26mn
Overall bit rate : 1 124 Kbps
Writing application : Lavf50.6.0
Video #0
ID : 0
Format : MPEG-4 Visual
Format profile : [email protected]
Format settings, BVOP : No
Format settings, QPel : No
Format settings, GMC : No warppoints
Format settings, Matrix : Default (H.263)
Codec ID : DX50
Codec ID/Hint : DivX 5
Duration : 1h 26mn
Bit rate : 984 Kbps
Width : 640 pixels
Height : 352 pixels
Display aspect ratio : 16:9
Frame rate : 23.976 fps
Color space : YUV
Chroma subsampling : 4:2:0
Bit depth : 8 bits
Scan type : Progressive
Compression mode : Lossy
Bits/(Pixel*Frame) : 0.182
Stream size : 608 MiB (87%)
Writing library : Lavc51.20.0
Audio #1
ID : 1
Format : MPEG Audio
Format version : Version 1
Format profile : Layer 3
Mode : Joint stereo
Mode extension : MS Stereo
Codec ID : 55
Codec ID/Hint : MP3
Duration : 1h 26mn
Bit rate mode : Constant
Bit rate : 128 Kbps
Channel(s) : 2 channels
Sampling rate : 48.0 KHz
Compression mode : Lossy
Stream size : 79.2 MiB (11%)
Alignment : Aligned on interleaves
Interleave, duration : 24 ms (0.58 video frame)
Interleave, preload duration : 24 ms
Writing library : LAME3.98 (alpha)
Источник/Качество: DVDScreener
Формат: AVI
Видео кодек: DivX
Аудио кодек: MPEG Audio
Видео: 640x352 (1.82:1), 23.976 fps, DivX Codec 5.x or 6.x ~982 kbps avg, 0.18 bit/pixel
Аудио: 48 kHz, MPEG Layer 3, 2 ch, ~128.00 kbps avg
Download / Скачать

Хотите скачать бесплатно? Зарегистрируйтесь на сайте (ссылка на регистрацию). Pirat.ca - самый быстрый торрент трекер в рунете!

Как скачивать  ·   Что такое торрент  ·   Рейтинг и ограничения

Пост 26-Янв-2012 18:14 (спустя 2 часа 31 минута)

Топик был перенесен из форума Наше Кино в форум Российские фильмы

Skinwalker
 
Показать сообщения:    
Ответить на тему

Текущее время: Сегодня 20:24

Часовой пояс: GMT + 4



Вы не можете начинать темы
Вы не можете отвечать на сообщения
Вы не можете редактировать свои сообщения
Вы не можете удалять свои сообщения
Вы не можете голосовать в опросах
Вы не можете прикреплять файлы к сообщениям
Вы не можете скачивать файлы

▼ Вниз