ML
     
  Уважаемый Гость!
Вы можете поддержать проект и зарегистрироваться у наших партнеров - онлайн-стратегия MyLands. При регистрации в игре Вы получите код, который сможете активировать после регистрации на pirat.ca и получить 1000 дублонов.

Ваш код:
062e2babcc491faeb40d496cf9a498ac3df6cdd0
 
     

Гороскоп на удачу (Арман Геворгян) [2015 г., комедия, мелодрама, WEB-DLRip] Original (RUS) [iTunes]

Ответить на тему
 
Автор
Сообщение

Пост 07-Авг-2015 06:56

[Q] 

aleksey99

--Гороскоп на удачу--«Следуй за мечтой»-- Производство: Россия, ЦПШ
Год выпуска: 2015 г.
Жанр: комедия, мелодрама
Продолжительность: 01:36:29--Мировая премьера: 20 июля 2015
Российская премьера: 16 июля 2015, «Централ Партнершип»--Режиссер: Арман Геворгян--В ролях: Дмитрий Ендальцев, Светлана Ходченкова, Анна Чиповская, Тимур Батрутдинов, Борис Смолкин, Виталий Хаев, Гоша Куценко, Дмитрий Нагиев, Дмитрий Хрусталёв, Михаил Самота--Описание: В руки Макса попадает «счастливый» гороскоп, которому он должен следовать 30 дней, выполняя все его безумные предписания, чтобы добиться расположения недоступной прежде красавицы и удачи во всех делах. Но в один прекрасный день гороскоп Макса подменяют…-- --Качество видео: WEB-DLRip
Контейнер: AVI
Видео кодек: XviD
Аудио кодек: AC3
Видео: 720x304 (2.37:1), 24 fps, XviD build 50 ~1634 kbps avg, 0.31 bit/pixel
Аудио: 48 kHz, AC3 Dolby Digital, 3/2 (L,C,R,l,r) + LFE ch, ~384 kbps
Cубтитры: отсутствуют
Общее
Полное имя : H:\Torrent2\G0rosk0p.Na.Udachu.2015.O.WEB-DLRip.avi
Формат : AVI
Формат/Информация : Audio Video Interleave
Размер файла : 1,37 Гбайт
Продолжительность : 1 ч. 36 м.
Общий поток : 2028 Кбит/сек
Программа кодирования : VirtualDubMod 1.5.10.3 | www.virtualdub-fr.org || (build 2550/release)
Библиотека кодирования : VirtualDubMod build 2550/release
Видео
Идентификатор : 0
Формат : MPEG-4 Visual
Профиль формата : Advanced [email protected]
Параметр BVOP формата : 2
Параметр QPel формата : Нет
Параметр GMC формата : Без точки перехода
Параметр матрицы формата : Default (MPEG)
Идентификатор кодека : XVID
Идентификатор кодека/Подсказка : XviD
Продолжительность : 1 ч. 36 м.
Битрейт : 1635 Кбит/сек
Ширина : 720 пикселей
Высота : 304 пикселя
Соотношение сторон : 2,35:1
Частота кадров : 24,000 кадра/сек
Цветовое пространство : YUV
Субдискретизация насыщенности : 4:2:0
Битовая глубина : 8 бит
Тип развёртки : Прогрессивная
Метод сжатия : С потерями
Бит/(Пиксели*Кадры) : 0.311
Размер потока : 1,10 Гбайт (81%)
Библиотека кодирования : XviD 1.2.1 (UTC 2008-12-04)
Аудио
Идентификатор : 1
Формат : AC-3
Формат/Информация : Audio Coding 3
Расширение режима : CM (complete main)
Параметр Endianness формата : Big
Идентификатор кодека : 2000
Продолжительность : 1 ч. 36 м.
Вид битрейта : Постоянный
Битрейт : 384 Кбит/сек
Каналы : 6 каналов
Расположение каналов : Front: L C R, Side: L R, LFE
Частота : 48,0 КГц
Метод сжатия : С потерями
Размер потока : 265 Мбайт (19%)
Выравнивание : Разделение по промежуткам
Продолжительность промежутка : 42 мс. (1,00 видеокадр)
Время предзагрузки промежутка : 500 мс.
Трейлер
Download / Скачать

Хотите скачать бесплатно? Зарегистрируйтесь на сайте (ссылка на регистрацию). Pirat.ca - самый быстрый торрент трекер в рунете!

Как скачивать  ·   Что такое торрент  ·   Рейтинг и ограничения

artyomka

Штурман

Пост 15-Авг-2015 15:13 (спустя 8 дней)

[Q] 

кто смотрел как впечатления ?
[Профиль]  [ЛС] 

serge_023

Шкипер

Пост 15-Авг-2015 21:56 (спустя 6 часов)

[Q] 

Ваниль ванильная, развитие сюжета туповато, но под пивасик или с девушкой ( или всё вместе) сойдёт на один раз.
[Профиль]  [ЛС] 

Пост 08-Сен-2015 14:28 (спустя 23 дня)

Топик был перенесен из форума Новинки (HD|DVD|BD| TV|SAT|PDTV| - Rips) в форум Российские фильмы
aleksey99
 
Показать сообщения:    
Ответить на тему

Текущее время: Сегодня 17:42

Часовой пояс: GMT + 4



Вы не можете начинать темы
Вы не можете отвечать на сообщения
Вы не можете редактировать свои сообщения
Вы не можете удалять свои сообщения
Вы не можете голосовать в опросах
Вы не можете прикреплять файлы к сообщениям
Вы не можете скачивать файлы

▼ Вниз