ML
     
  Уважаемый Гость!
Вы можете поддержать проект и зарегистрироваться у наших партнеров - онлайн-стратегия MyLands. При регистрации в игре Вы получите код, который сможете активировать после регистрации на pirat.ca и получить 1000 дублонов.

Ваш код:
21acd5966619d49ad0b90c3305467b4646cc11a8
 
     

Реальная сказка (Андрей Мармонтов) [2011 г., фэнтези, драма, комедия, семейный, HDRip]

Ответить на тему
 
Автор
Сообщение

Пост 26-Янв-2012 20:25

[Q] 

zyyx

--Реальная сказка
«Надо просто верить»
-- Год выпуска: 2011
Мировая премьера: 3 ноября 2011
Российская премьера: 3 ноября 2011, «Централ Партнершип»
Дата выхода DVD: 8 декабря 2011, «Новый Диск»
Дата выхода Blu-Ray: 26 января 2012, «Новый Диск»
Страна: Россия
Жанр: фэнтези, драма, комедия, семейный
Продолжительность: 01:41:57
Перевод: Не требуется [Лицензия]
Режиссер: Андрей Мармонтов
В ролях: Сергей Безруков, Леонид Ярмольник, Максим Шибаев, Анастасия Добрынина, Ирина Безрукова, Георгий Штиль, Людмила Полякова, Анна Герман, Сергей Погосян, Антон Пампушный
Описание: Жили-были сестрица Олесенька и братец Саша… Нет, так не пойдет: кажется, прошла пора старых-добрых сказок. Даже сказочные персонажи, понимая это, переселились в наш мир: Василиса Премудрая стала учительницей, Леший — бомжом, Иван-дурак — ВДВшником, Кащей — олигархом. Злые дела творить он, конечно, не бросил. И главным его злодеянием стало то, что он лишил нас веры в чудо.
Люди стали эгоистичными, расчетливыми и прагматичными, что Кащею — как бальзам на душу. Только одно не дает ему спокойно спать: благодаря сказкам, каждый ребенок знает, где искать его смерть. И какой же он после этого бессмертный? Кащей идет на крайние меры и безжалостно уничтожает все страницы сказок, где описана его страшная тайна.
Маленькая девочка Олеся находит нетронутую старинную книгу сказок и, прочитав ее, вскоре… исчезает. Старший брат девочки, школьник Саша, бросается на поиски, рассчитывая на поддержку новых знакомых — Ивана-дурака и его жены Василисы, — но они, вопреки ожиданиям, не спешат помогать ему в его борьбе с Кащеем. Саша же готов пойти на все, чтобы вернуть сестренку и подарить миру веру в чудо.
Источник/Качество: HDRip | Сэмпл
Формат: AVI
Видео кодек: XviD
Аудио кодек: AC3
Видео: 720x304 (2.37:1), 25 fps, XviD MPEG-4, 1457 kbps avg, 0.27 bit/pixel
Аудио: 48 kHz, AC3 Dolby Digital, 3/2 (L,C,R,l,r) + LFE ch, 448 kbps
General
Complete name : E:\Realnaya.skazka.2011.O.HDRip.avi
Format : AVI
Format/Info : Audio Video Interleave
File size : 1.36 GiB
Duration : 1h 41mn
Overall bit rate : 1 916 Kbps
Writing application : VirtualDubMod 1.5.10.2 (build 2540/release)
Writing library : VirtualDubMod build 2540/release
Video
ID : 0
Format : MPEG-4 Visual
Format profile : [email protected]
Format settings, BVOP : Yes
Format settings, QPel : No
Format settings, GMC : 3 warppoints
Format settings, Matrix : Default (H.263)
Muxing mode : Packed bitstream
Codec ID : XVID
Codec ID/Hint : XviD
Duration : 1h 41mn
Bit rate : 1 458 Kbps
Width : 720 pixels
Height : 304 pixels
Display aspect ratio : 2.35:1
Frame rate : 25.000 fps
Resolution : 24 bits
Colorimetry : 4:2:0
Scan type : Progressive
Bits/(Pixel*Frame) : 0.266
Stream size : 1.04 GiB (76%)
Writing library : XviD 1.2.1 (UTC 2008-12-04)
Audio
ID : 1
Format : AC-3
Format/Info : Audio Coding 3
Codec ID : 2000
Duration : 1h 41mn
Bit rate mode : Constant
Bit rate : 448 Kbps
Channel(s) : 6 channels
Channel positions : Front: L C R, Surround: L R, LFE
Sampling rate : 48.0 KHz
Stream size : 327 MiB (23%)
Alignment : Split accross interleaves
Interleave, duration : 40 ms (1.00 video frame)
Interleave, preload duration : 500 ms
Download / Скачать

Хотите скачать бесплатно? Зарегистрируйтесь на сайте (ссылка на регистрацию). Pirat.ca - самый быстрый торрент трекер в рунете!

Как скачивать  ·   Что такое торрент  ·   Рейтинг и ограничения



Последний раз редактировалось: zyyx (2012-01-26 20:35), всего редактировалось 1 раз

Пост 26-Янв-2012 20:27 (спустя 2 минуты)

Топик был перенесен из форума Наше Кино в форум Новинки (HD|DVD|BD|TV|SAT|PDTV| - Rips)

Skinwalker
 

Strix

Флибустьер

Пост 26-Янв-2012 20:58 (спустя 33 минуты)

[Q] 

Мерси, will see
[Профиль]  [ЛС] 

serafim7

Корсар

99

Пост 27-Янв-2012 15:05 (спустя 18 часов)

[Q] 

муйня
[Профиль]  [ЛС] 

wirtual

Гроза морей

Пост 27-Янв-2012 17:49 (спустя 2 часа 44 минуты)

[Q] 

пасиб

_________________
не будешь делиться - останешься одноклеточным
[Профиль]  [ЛС] 

reynmar

Штурман

Пост 28-Янв-2012 13:55 (спустя 20 часов)

[Q] 

посмотрим, че там Безруков наснимал. Спасибо
[Профиль]  [ЛС] 

Processor

Корсар

68

Пост 29-Янв-2012 00:35 (спустя 10 часов)

[Q] 

Мне понравилось. Очень добрый фильм
[Профиль]  [ЛС] 

steve11

Штурман

Пост 29-Янв-2012 01:21 (спустя 45 минут)

[Q] 

не плохо
[Профиль]  [ЛС] 

pro100userspb

Корсар

Пост 29-Янв-2012 14:00 (спустя 12 часов)

[Q] 

норм

_________________
[Профиль]  [ЛС] 

Chiochanka

Морской Волк

Пост 31-Янв-2012 21:40 (спустя 2 дня 7 часов)

[Q] 

хм...
[Профиль]  [ЛС] 

IgorWOO

Корсар

Пост 04-Фев-2012 22:01 (спустя 4 дня)

[Q] 

В конце драка с "боссом" интересно поставлена, а так муйня муйней))
[Профиль]  [ЛС] 

Chiochanka

Морской Волк

Пост 06-Фев-2012 21:40 (спустя 1 день 23 часа)

[Q] 

мозги отдыхали при просмотре))))
[Профиль]  [ЛС] 

Deadman7111983

Шкипер

71

Пост 07-Фев-2012 09:48 (спустя 12 часов)

[Q] 

Отличный фильм.
[Профиль]  [ЛС] 

aleks_al

Штурман

Пост 07-Фев-2012 11:55 (спустя 2 часа 6 минут)

[Q] 

можно побольше спецэфектов, а так фильмец на один раз.
[Профиль]  [ЛС] 

ravinmtv

Морской Волк

Пост 07-Фев-2012 13:01 (спустя 1 час 6 минут)

[Q] 

[Профиль]  [ЛС] 

Пост 20-Фев-2012 10:57 (спустя 12 дней)

Топик был перенесен из форума Новинки (HD|DVD|BD|TV|SAT|PDTV| - Rips) в форум Российские фильмы

Skinwalker
 
Показать сообщения:    
Ответить на тему

Текущее время: Сегодня 23:21

Часовой пояс: GMT + 4



Вы не можете начинать темы
Вы не можете отвечать на сообщения
Вы не можете редактировать свои сообщения
Вы не можете удалять свои сообщения
Вы не можете голосовать в опросах
Вы не можете прикреплять файлы к сообщениям
Вы не можете скачивать файлы

▼ Вниз