ML
     
  Уважаемый Гость!
Вы можете поддержать проект и зарегистрироваться у наших партнеров - онлайн-стратегия MyLands. При регистрации в игре Вы получите код, который сможете активировать после регистрации на pirat.ca и получить 1000 дублонов.

Ваш код:
2a3da67fd641d69eeebb7cb965232435a70eaa24
 
     

Мой парень - ангел (Вера Сторожева) [2011 г., фэнтези, мелодрама, комедия, приключения, HDRip]

Ответить на тему
 
Автор
Сообщение

Пост 26-Янв-2012 21:34

[Q] 

zyyx

--Мой парень - ангел
«Все парни, как парни, а...»
-- Год выпуска: 2011
Мировая премьера: 5 января 2012
Российская премьера: 2 января 2012, «Парадиз»
Дата выхода DVD: 31 января 2012, «Парадиз Видео»
Дата выхода Blu-Ray: 31 января 2012, «Парадиз Видео»
Страна: Россия
Жанр: фэнтези, мелодрама, комедия, приключения
Продолжительность: 01:37:29
Перевод: Не требуется [Лицензия]
Режиссер: Вера Сторожева
В ролях: Артур Смольянинов, Анна Старшенбаум, Сергей Пускепалис, Екатерина Вуличенко, Иван Охлобыстин, Гоша Куценко, Никита Ефремов, Иван Макаревич, Андрей Леонов, Василий Степанов
Описание: XXI век. Мегаполис. Сотни, тысячи людей окружают тебя каждый день. Но ты даже и представить себе не можешь, что среди этой многоликой толпы прямо перед тобой может оказаться… Ангел. Студентка Саша с большим трудом верит, что такое бывает. Ангелу Серафиму приходится приложить немало усилий, чтобы доказать ей, что Ангелы существуют. Но он не учёл одного — если девушка тебе поверит, она, скорее всего, тебя полюбит. А разве можно влюбиться в Ангела?
Источник/Качество: HDRip | Сэмпл
Формат: AVI
Видео кодек: XviD
Аудио кодек: MP3
Видео: 640x352 (1.82:1), 23.976 fps, XviD build 63 ~931 kbps avg, 0.17 bit/pixel
Аудио: 48 kHz, MPEG Layer 3, 2 ch, ~128.00 kbps avg
General
Complete name : E:\Мой парень - ангел.avi
Format : AVI
Format/Info : Audio Video Interleave
File size : 746 MiB
Duration : 1h 37mn
Overall bit rate : 1 069 Kbps
Writing library : VirtualDub build 32507/release
Video
ID : 0
Format : MPEG-4 Visual
Format profile : [email protected]
Format settings, BVOP : Yes
Format settings, QPel : No
Format settings, GMC : No warppoints
Format settings, Matrix : Default (H.263)
Codec ID : XVID
Codec ID/Hint : XviD
Duration : 1h 37mn
Bit rate : 932 Kbps
Width : 640 pixels
Height : 352 pixels
Display aspect ratio : 16:9
Frame rate : 23.976 fps
Resolution : 24 bits
Colorimetry : 4:2:0
Scan type : Progressive
Bits/(Pixel*Frame) : 0.173
Stream size : 650 MiB (87%)
Writing library : XviD 63
Audio
ID : 1
Format : MPEG Audio
Format version : Version 1
Format profile : Layer 3
Codec ID : 55
Codec ID/Hint : MP3
Duration : 1h 37mn
Bit rate mode : Constant
Bit rate : 128 Kbps
Channel(s) : 2 channels
Sampling rate : 48.0 KHz
Resolution : 16 bits
Stream size : 89.3 MiB (12%)
Alignment : Split accross interleaves
Interleave, duration : 42 ms (1.00 video frame)
Interleave, preload duration : 500 ms
Download / Скачать

Хотите скачать бесплатно? Зарегистрируйтесь на сайте (ссылка на регистрацию). Pirat.ca - самый быстрый торрент трекер в рунете!

Как скачивать  ·   Что такое торрент  ·   Рейтинг и ограничения



Последний раз редактировалось: zyyx (2012-01-26 22:30), всего редактировалось 1 раз

Пост 26-Янв-2012 21:35 (спустя 1 минута)

Топик был перенесен из форума Наше Кино в форум Новинки (HD|DVD|BD|TV|SAT|PDTV| - Rips)

Skinwalker
 

zhekis77

Лоцман

Пост 26-Янв-2012 22:05 (спустя 30 минут)

[Q] 

Описание из другого фильма(Реальная сказка) cr ek cf
[Профиль]  [ЛС] 

wic777

Корсар

Пост 26-Янв-2012 22:23 (спустя 17 минут)

[Q] 

спас ибо
[Профиль]  [ЛС] 

Stormilo

Морской Волк

Пост 27-Янв-2012 00:24 (спустя 2 часа 1 минута)

[Q] 

Thx.

_________________
[Профиль]  [ЛС] 

sd535

Флибустьер

1796

Пост 27-Янв-2012 02:11 (спустя 1 час 46 минут)

[Q] 

Качнуть...не качнуть...
[Профиль]  [ЛС] 

bull271174

Флибустьер

Пост 27-Янв-2012 09:32 (спустя 7 часов)

[Q] 

Посмотрим
[Профиль]  [ЛС] 

ksg111ban

Гроза морей

Пост 27-Янв-2012 10:04 (спустя 32 минуты)

[Q] 

Большое спасибо за фильм!!

_________________
[Профиль]  [ЛС] 

serafim7

Корсар

99

Пост 27-Янв-2012 11:57 (спустя 1 час 52 минуты)

[Q] 

Сенкс
[Профиль]  [ЛС] 

Aleks44

Гроза морей

Пост 28-Янв-2012 21:20 (спустя 1 день 9 часов)

[Q] 

Нормальный фильм который смотришь и отдыхаешь в таком огромном мере когда нибудь пересечется с тек кому ты сделал добро или зло
[Профиль]  [ЛС] 

erchine

44808

Пост 28-Янв-2012 23:13 (спустя 1 час 53 минуты)

[Q] 

Очень приятное, отдыхающее кино. Мне понравилось.
[Профиль]  [ЛС] 

dr.archie80

Морской Волк

Пост 29-Янв-2012 00:33 (спустя 1 час 19 минут)

[Q] 

Спасибо за раздачу.
[Профиль]  [ЛС] 

ksg111ban

Гроза морей

Пост 31-Янв-2012 18:43 (спустя 2 дня 18 часов)

[Q] 


_________________
[Профиль]  [ЛС] 

ursus

Морской Волк

Пост 01-Фев-2012 23:14 (спустя 1 день 4 часа)

[Q] 

[Профиль]  [ЛС] 

a_Lex

212

Пост 06-Фев-2012 07:56 (спустя 4 дня)

[Q] 

Спасибо, хороший фильм

_________________
© СoPirat
Есть вопросы - пиши сюда: Виртуальная юридическая консультация (форум) и в личку ссылку на тему.
[Профиль]  [ЛС] 

Deadman7111983

Шкипер

71

Пост 07-Фев-2012 09:49 (спустя 1 день 1 час)

[Q] 

[Профиль]  [ЛС] 

ravinmtv

Морской Волк

Пост 07-Фев-2012 13:09 (спустя 3 часа)

[Q] 

[Профиль]  [ЛС] 

MOPRK

Флибустьер

Пост 07-Фев-2012 21:10 (спустя 8 часов)

[Q] 

[Профиль]  [ЛС] 

polozm

Легенда

Пост 08-Фев-2012 09:00 (спустя 11 часов)

[Q] 

супер.с удовольствием посмотрели с женой :)

_________________
mac mini -2.0 GHz Intel Core i7/ 8 GB DDR3. /Intel HD 3000(512mb)OS X 10.9 Mavericks
[Профиль]  [ЛС] 

dp

Корсар

Пост 08-Фев-2012 12:26 (спустя 3 часа)

[Q] 

добрый легкий фильм

_________________
Мог стать отличным пианистом, а стал поскудным программистом
[Профиль]  [ЛС] 

yano4ka

Шкипер

Пост 08-Фев-2012 22:00 (спустя 9 часов)

[Q] 

[Профиль]  [ЛС] 

Пост 11-Фев-2012 22:36 (спустя 3 дня)

Топик был перенесен из форума Новинки (HD|DVD|BD|TV|SAT|PDTV| - Rips) в форум Российские фильмы

Skinwalker
 

PREDATOR

Корсар

Пост 17-Фев-2012 21:39 (спустя 8 дней)

[Q] 

Позитивный фильмчик. Пасябо автор!

_________________
[Профиль]  [ЛС] 
Показать сообщения:    
Ответить на тему

Текущее время: Сегодня 01:18

Часовой пояс: GMT + 4



Вы не можете начинать темы
Вы не можете отвечать на сообщения
Вы не можете редактировать свои сообщения
Вы не можете удалять свои сообщения
Вы не можете голосовать в опросах
Вы не можете прикреплять файлы к сообщениям
Вы не можете скачивать файлы

▼ Вниз