ML
     
  Уважаемый Гость!
Вы можете поддержать проект и зарегистрироваться у наших партнеров - онлайн-стратегия MyLands. При регистрации в игре Вы получите код, который сможете активировать после регистрации на pirat.ca и получить 1000 дублонов.

Ваш код:
156f85568ae63e45e07ac461c96a83ba1a876b0a
 
     

Овечка Долли была злая и рано умерла (Алексей Пиманов) [2015 г., фантастика, комедия, приключения, WEB-DLRip] Original (RUS)

Ответить на тему
 
Автор
Сообщение

Пост 11-Сен-2015 12:26

[Q] 

aleksey99

--Овечка Долли была злая и рано умерла-- Производство: Россия, Пиманов и партнеры
Год выпуска: 2015 г.
Жанр: фантастика, комедия, приключения
Продолжительность: 01:56:37--Премьера (РФ): 19 февраля 2015, «Двадцатый Век Фокс СНГ»--Режиссер: Алексей Пиманов--В ролях: Данила Шевченко, Юлия Савичева, Виктор Сухоруков, Роман Полянский, Виктория Маслова, Борис Щербаков, Анна Шерлинг, Юлия Пожидаева, Антон Феоктистов, Ирина Ильинская--Описание: Главный герой — современный молодой человек Никита, студент МИФИ, в результате научного эксперимента попадает в прошлое, где ему предстоит встретить не только своих молодых родителей, но найти новых друзей и обрести настоящую любовь в лице студентки Маши. Эта встреча заставляет его по-другому посмотреть на свою жизнь. Однако Никита вдруг понимает, что начинает стремительно стареть и спастись он может только если вернется обратно — в свое время. Но сделать это оказалось не так просто….-- --Качество видео: WEB-DLRip
Контейнер: AVI
Видео кодек: XviD
Аудио кодек: AC3
Видео: 720x304 (2.37:1), 25 fps, XviD build 50 ~1581 kbps avg, 0.29 bit/pixel
Аудио: 48 kHz, AC3 Dolby Digital, 2/0 (L,R) ch, ~192 kbps
Cубтитры: отсутствуют
Общее
Полное имя : F:\Torent 2\Овечка.Долли.была.злая.и.рано.умерла.2015.WEB-DLRip..avi
Формат : AVI
Формат/Информация : Audio Video Interleave
Размер файла : 1,45 Гбайт
Продолжительность : 1 ч. 56 м.
Общий поток : 1784 Кбит/сек
Программа кодирования : VirtualDubMod 1.5.10.2 (build 2540/release)
Библиотека кодирования : VirtualDubMod build 2540/release
Видео
Идентификатор : 0
Формат : MPEG-4 Visual
Профиль формата : Advanced [email protected]
Параметр BVOP формата : 2
Параметр QPel формата : Нет
Параметр GMC формата : Без точки перехода
Параметр матрицы формата : Default (MPEG)
Идентификатор кодека : XVID
Идентификатор кодека/Подсказка : XviD
Продолжительность : 1 ч. 56 м.
Битрейт : 1582 Кбит/сек
Ширина : 720 пикселей
Высота : 304 пикселя
Соотношение сторон : 2,35:1
Частота кадров : 25,000 кадров/сек
Цветовое пространство : YUV
Субдискретизация насыщенности : 4:2:0
Битовая глубина : 8 бит
Тип развёртки : Прогрессивная
Метод сжатия : С потерями
Бит/(Пиксели*Кадры) : 0.289
Размер потока : 1,29 Гбайт (89%)
Библиотека кодирования : XviD 1.2.1 (UTC 2008-12-04)
Аудио
Идентификатор : 1
Формат : AC-3
Формат/Информация : Audio Coding 3
Расширение режима : CM (complete main)
Параметр Endianness формата : Big
Идентификатор кодека : 2000
Продолжительность : 1 ч. 56 м.
Вид битрейта : Постоянный
Битрейт : 192 Кбит/сек
Каналы : 2 канала
Расположение каналов : Front: L R
Частота : 48,0 КГц
Метод сжатия : С потерями
Размер потока : 160 Мбайт (11%)
Выравнивание : Разделение по промежуткам
Продолжительность промежутка : 40 мс. (1,00 видеокадр)
Время предзагрузки промежутка : 500 мс.
Трейлер
Download / Скачать

Хотите скачать бесплатно? Зарегистрируйтесь на сайте (ссылка на регистрацию). Pirat.ca - самый быстрый торрент трекер в рунете!

Как скачивать  ·   Что такое торрент  ·   Рейтинг и ограничения

Jek@

Легенда

Пост 11-Сен-2015 15:11 (спустя 2 часа 44 минуты)

[Q] 

Спасибо!!! .
[Профиль]  [ЛС] 

artyomka

Штурман

Пост 12-Сен-2015 17:35 (спустя 1 день 2 часа)

[Q] 

как фильм? смотреть можно? или как всегда на один раз и то не до конца.
[Профиль]  [ЛС] 

tema5.88

Морской Волк

2

Пост 12-Сен-2015 20:48 (спустя 3 часа)

[Q] 

701913как фильм? смотреть можно? или как всегда на один раз и то не до конца.
шлак, сюжет нулевый, любовная история просто скомканная, да и весь сюжет такой.
[Профиль]  [ЛС] 

alexman

Корсар

Пост 12-Сен-2015 21:45 (спустя 56 минут)

[Q] 

Хороший фильм. Смотреть всем. Звоните родителям! !COOL!
[Профиль]  [ЛС] 

ТАЛИ

Корсар

Пост 12-Сен-2015 22:31 (спустя 46 минут)

[Q] 

Мне понравилось. Я вообще люблю фильмы про путешествия во времени, так что, возможно, зритель я не объективный. До сих пор только один фильм на эту тему совсем уж отстойный посмотрела - "Континуум". Ведь тут главное не бюджет, а идея. В данном фильме с идеей все норм. Ну и довольно душевно снято. Хотя гримеру (если таковой вообще имелся) я бы руки поотрывала.
[Профиль]  [ЛС] 

Ruslan2800

Штурман

Пост 13-Сен-2015 20:46 (спустя 22 часа)

[Q] 

Разок глянуть стоит. Несколько ироничных улыбок и легкая ностальгия обеспечены. Минусы перечислены объективно: неубедительность некоторых сюжетных поворотов, ну и конечно слабо сыграна разница возраста и эпохи: 20-летние герои в 85-м и они же в 2010-м почти ничем не отличаются ни внешне ни в поведении, так не бывает :)
[Профиль]  [ЛС] 

Дмитров

Морской Волк

Пост 14-Сен-2015 17:04 (спустя 20 часов)

[Q] 

Хорошая добрая мелодрама с элементами фантастики. P.S.Бросились в глаза алюминиевые стеклопакеты на входных дверях!
[Профиль]  [ЛС] 

Dead Mazay

Пост 18-Сен-2015 20:06 (спустя 4 дня)

[Q] 

Ня!
[Профиль]  [ЛС] 

Полтос

Флибустьер

Пост 20-Сен-2015 12:10 (спустя 1 день 16 часов)

[Q] 

Одобрямс!!! Добрый фильм об общечеловеческих ценностях. Постер обложки, мягко говоря не в кассу, как и вся связка с Долли...
Мне понравилось Ку три раза

_________________
Первый закон Прапорщика: Всё что поднимаемо - относительно!)
[Профиль]  [ЛС] 

Dypa4ek

Морской Волк

Пост 20-Сен-2015 15:29 (спустя 3 часа)

[Q] 

Отличный фильм!
Качают ВСЕ!!!

_________________
[Профиль]  [ЛС] 

Пост 15-Окт-2015 08:26 (спустя 24 дня)

Топик был перенесен из форума Новинки (HD|DVD|BD| TV|SAT|PDTV| - Rips) в форум Российские фильмы
aleksey99
 

platon18

Гроза морей

Пост 19-Окт-2015 08:25 (спустя 28 дней)

[Q] 

ну дык сюжет нулевой или хороший фильм?
[Профиль]  [ЛС] 

msss

Морской Волк

Пост 25-Окт-2015 18:31 (спустя 6 дней)

[Q] 

Добрый российский фильмец, мне понравился, 9/10
[Профиль]  [ЛС] 

serge_023

Шкипер

Пост 11-Ноя-2015 01:48 (спустя 16 дней)

[Q] 

Хорошее , доброе кино. Спасибо!
[Профиль]  [ЛС] 

john_ricko

Морской Волк

80

Пост 20-Ноя-2015 19:51 (спустя 9 дней)

[Q] 

Фильм хороший, для российской фантастики прямо даже отличный. Чем то напомнил сериал Чернобыль по ТНТ. Актеры подобраны подходящие, роли свои отыграли как надо. Я сразу понял что про путешествия во времени, когда звучала характерная мелодия, очень похожая на ту, что была в "Назад в будущее". Так что смотреть всем, скучно не будет.
Всем качать!!! Спасибо!!!
[Профиль]  [ЛС] 
Показать сообщения:    
Ответить на тему

Текущее время: Сегодня 21:57

Часовой пояс: GMT + 4



Вы не можете начинать темы
Вы не можете отвечать на сообщения
Вы не можете редактировать свои сообщения
Вы не можете удалять свои сообщения
Вы не можете голосовать в опросах
Вы не можете прикреплять файлы к сообщениям
Вы не можете скачивать файлы

▼ Вниз