ML
     
  Уважаемый Гость!
Вы можете поддержать проект и зарегистрироваться у наших партнеров - онлайн-стратегия MyLands. При регистрации в игре Вы получите код, который сможете активировать после регистрации на pirat.ca и получить 1000 дублонов.

Ваш код:
8b29d0f8cd61fe457e59e7df0aa1fab41a2b88b9
 
     

Гена-Бетон (Роман Качанов) [2014 г., комедия, криминал, WEBRip] Original (RUS)

Ответить на тему
 
Автор
Сообщение

Пост 23-Сен-2015 13:28

[Q] 

aleksey99

--Гена-Бетон-- Производство: Россия
Год выпуска: 2014 г.
Жанр: комедия, криминал
Продолжительность: 01:25:41--Мировая премьера: 24 октября 2014--Режиссер: Роман Качанов--В ролях: Гоша Куценко, Сергей Перегудов, Ольга Арнтгольц, Алика Смехова, Рената Литвинова, Фёдор Бондарчук, Иван Охлобыстин, Роман Качанов, Ангелина Чернова, Рудольф Фурманов, Сергей Шнуров, Алексей Панин, Константин Юшкевич, Артур Ваха--Описание: Молодой журналист волею обстоятельств оказывается вовлечен в интриги и разборки сильных мира сего. Чтобы выжить, он придумывает себе "покровителя", вымышленного "авторитета" и ставленника спецслужб - Гену Бетона. Удачный пиар срабатывает, и для усиления эффекта журналист предъявляет миру своего приятеля, бывшего актера, которого и выдает за Гену Бетона. Но это только завязка. Экранизация повести Андрея Кивинова "Псевдоним для героя" ("Маслины для пахана")-- --Качество видео: WEBRip
Контейнер: AVI
Видео кодек: XviD
Аудио кодек: MP3
Видео: 720x384 (1.88:1), 30 fps, XviD build 50 ~2080 kbps avg, 0.25 bit/pixel
Аудио: 44.100 kHz, MPEG Layer 3, 2 ch, ~192.00 kbps avg
Cубтитры: отсутствуют
Общее
Полное имя : F:\Torent 2\geHa.beT0H.2014.O.WEBRip.1400Mb.avi
Формат : AVI
Формат/Информация : Audio Video Interleave
Размер файла : 1,37 Гбайт
Продолжительность : 1 ч. 25 м.
Общий поток : 2283 Кбит/сек
Программа кодирования : VirtualDubMod 1.5.10.2 (build 2540/release)
Библиотека кодирования : VirtualDubMod build 2540/release
Видео
Идентификатор : 0
Формат : MPEG-4 Visual
Профиль формата : Advanced [email protected]
Параметр BVOP формата : 2
Параметр QPel формата : Нет
Параметр GMC формата : Без точки перехода
Параметр матрицы формата : Выборочная
Идентификатор кодека : XVID
Идентификатор кодека/Подсказка : XviD
Продолжительность : 1 ч. 25 м.
Битрейт : 2080 Кбит/сек
Ширина : 720 пикселей
Высота : 384 пикселя
Соотношение сторон : 1,85:1
Частота кадров : 30,000 кадров/сек
Цветовое пространство : YUV
Субдискретизация насыщенности : 4:2:0
Битовая глубина : 8 бит
Тип развёртки : Прогрессивная
Метод сжатия : С потерями
Бит/(Пиксели*Кадры) : 0.251
Размер потока : 1,24 Гбайт (91%)
Библиотека кодирования : XviD 1.2.1 (UTC 2008-12-04)
Аудио
Идентификатор : 1
Формат : MPEG Audio
Версия формата : Version 1
Профиль формата : Layer 3
Идентификатор кодека : 55
Идентификатор кодека/Подсказка : MP3
Продолжительность : 1 ч. 25 м.
Вид битрейта : Постоянный
Битрейт : 192 Кбит/сек
Каналы : 2 канала
Частота : 44,1 КГц
Метод сжатия : С потерями
Размер потока : 118 Мбайт (8%)
Выравнивание : Разделение по промежуткам
Продолжительность промежутка : 33 мс. (1,00 видеокадр)
Время предзагрузки промежутка : 500 мс.
Трейлер
Download / Скачать

Хотите скачать бесплатно? Зарегистрируйтесь на сайте (ссылка на регистрацию). Pirat.ca - самый быстрый торрент трекер в рунете!

Как скачивать  ·   Что такое торрент  ·   Рейтинг и ограничения

Jek@

Легенда

Пост 23-Сен-2015 17:14 (спустя 3 часа)

[Q] 

Спасибо!!! .
[Профиль]  [ЛС] 

litti

Флибустьер

Пост 23-Сен-2015 23:56 (спустя 6 часов)

[Q] 

rum !COOL!

_________________
Маньяком быть ты не обязан,
но сексуальным должен быть...
[Профиль]  [ЛС] 

olipov

Легенда

Пост 25-Сен-2015 00:20 (спустя 1 день)

[Q] 

спасибо.. глянем....
[Профиль]  [ЛС] 

ramzzess1

Шкипер

Пост 26-Сен-2015 01:08 (спустя 1 день)

[Q] 

сомневаюсь конечно, но качну..
[Профиль]  [ЛС] 

denis1705

Корсар

Пост 28-Сен-2015 21:09 (спустя 2 дня 20 часов)

[Q] 

Что это? Кто смотрел?))))
[Профиль]  [ЛС] 

pdb08

Легенда

Пост 30-Сен-2015 13:11 (спустя 1 день 16 часов)

[Q] 

Спасибо!!! за труд!

_________________
[Профиль]  [ЛС] 

vanyaknyazev

Лоцман

Пост 30-Сен-2015 13:31 (спустя 20 минут)

[Q] 

хороший и приятный фильм.. на 1 раз на работе.. рекомендую..
[Профиль]  [ЛС] 

denis1705

Корсар

Пост 04-Окт-2015 11:44 (спустя 3 дня)

[Q] 

vanyaknyazev Cпасибо за ответ!
[Профиль]  [ЛС] 

raul kurochka

Корсар

Пост 06-Окт-2015 18:50 (спустя 2 дня 7 часов)

[Q] 

705382Что это? Кто смотрел?))))
фильм от Режиссера Романа Качанова, подарившего нам оригинальный "ДМБ", и взявший кучу уважаемых наград, бесподобный "Даун Хаус". Как минимум стоит внимания
Добавлено спустя 1 минута 33 секунды:
за труды - как полагается:
Лови бочку

_________________
...ЧО ТАКОЙ СЕРЬЕЗНЫЙ???
[Профиль]  [ЛС] 

Су-34

Гроза морей

10391

Пост 06-Окт-2015 22:36 (спустя 3 часа)

[Q] 

опять этот Гоша Куценко!!?
[Профиль]  [ЛС] 

platon18

Гроза морей

Пост 21-Окт-2015 09:28 (спустя 14 дней)

[Q] 

Лысый играть то не умеет
[Профиль]  [ЛС] 

sergey718

Корсар

Пост 10-Мар-2016 05:44 (спустя 4 месяца 19 дней)

[Q] 

Спасибо! Поржал! Ку три раза
[Профиль]  [ЛС] 

italiano711

Гроза морей

Пост 25-Июл-2016 23:19 (спустя 4 месяца 15 дней)

[Q] 

На один раз поржать пойдет)))
[Профиль]  [ЛС] 
Показать сообщения:    
Ответить на тему

Текущее время: Сегодня 21:26

Часовой пояс: GMT + 4



Вы не можете начинать темы
Вы не можете отвечать на сообщения
Вы не можете редактировать свои сообщения
Вы не можете удалять свои сообщения
Вы не можете голосовать в опросах
Вы не можете прикреплять файлы к сообщениям
Вы не можете скачивать файлы

▼ Вниз