ML
     
  Уважаемый Гость!
Вы можете поддержать проект и зарегистрироваться у наших партнеров - онлайн-стратегия MyLands. При регистрации в игре Вы получите код, который сможете активировать после регистрации на pirat.ca и получить 1000 дублонов.

Ваш код:
74c28610d77aaac24ba694c4128f3b9b46b04220
 
     

Москва никогда не спит (Джонни О’Райлли) [2015 г., драма, комедия, триллер, WEBRip] Original (RUS)

Ответить на тему
 
Автор
Сообщение

Пост 24-Сен-2015 18:34

[Q] 

aleksey99

--Москва никогда не спит--«Этот город перевернёт твою жизнь»-- Производство: Россия, Ирландия
Год выпуска: 2015 г.
Жанр: драма, комедия, триллер
Продолжительность: 01:39:49--Мировая премьера: 3 сентября 2015, «Экспонента»--Режиссер: Джонни О’Райлли--В ролях: Евгения Брик (Хиривская), Михаил Ефремов, Алексей Серебряков, Виктор Вержбицкий, Алёна Бабенко, Юрий Стоянов, Любовь Аксёнова, Олег Долин, Яна Попова, Соня Реснянская--Описание: В день, когда Москва празднует очередной день рождения, каждый из пяти героев должен будет сделать свой жизненный выбор. Их судьбы пересекутся и изменятся навсегда.
Предприниматель должен отстоять свой бизнес, которому угрожают госчиновники; начинающая певица разрывается между любовью и деньгами; знаменитый актер, которого похищают среди белого дня, наконец-то сможет побыть собой и сказать правду; молодой человек ищет возможность соединить долг и собственные желания; а ненавидящим друг друга сводным сестрам за одну опасную ночь удастся найти взаимопонимание.
Связанные скрытыми узами, герои представят яркий портрет мегаполиса в День города. Под взрывы салюта раскроется безудержная энергия крупнейшего города Европы.-- --Качество видео: WEBRip
Контейнер: AVI
Видео кодек: XviD
Аудио кодек: AC3
Видео: 720x304 (2.37:1), 24 fps, XviD build 50 ~1898 kbps avg, 0.36 bit/pixel
Аудио: 44.1 kHz, AC3 Dolby Digital, 2/0 (L,R) ch, ~192 kbps
Cубтитры: отсутствуют
Общее
Полное имя : F:\Torent 2\M0skva.n1kogda.ne.spit.2015.O.WEBRip.1.46GB.avi
Формат : AVI
Формат/Информация : Audio Video Interleave
Размер файла : 1,46 Гбайт
Продолжительность : 1 ч. 39 м.
Общий поток : 2100 Кбит/сек
Программа кодирования : VirtualDubMod 1.5.10.2 (build 2540/release)
Библиотека кодирования : VirtualDubMod build 2540/release
Видео
Идентификатор : 0
Формат : MPEG-4 Visual
Профиль формата : Advanced [email protected]
Параметр BVOP формата : 2
Параметр QPel формата : Нет
Параметр GMC формата : Без точки перехода
Параметр матрицы формата : Выборочная
Идентификатор кодека : XVID
Идентификатор кодека/Подсказка : XviD
Продолжительность : 1 ч. 39 м.
Битрейт : 1899 Кбит/сек
Ширина : 720 пикселей
Высота : 304 пикселя
Соотношение сторон : 2,35:1
Частота кадров : 24,000 кадра/сек
Цветовое пространство : YUV
Субдискретизация насыщенности : 4:2:0
Битовая глубина : 8 бит
Тип развёртки : Прогрессивная
Метод сжатия : С потерями
Бит/(Пиксели*Кадры) : 0.361
Размер потока : 1,32 Гбайт (90%)
Библиотека кодирования : XviD 1.2.1 (UTC 2008-12-04)
Аудио
Идентификатор : 1
Формат : AC-3
Формат/Информация : Audio Coding 3
Расширение режима : CM (complete main)
Параметр Endianness формата : Big
Идентификатор кодека : 2000
Продолжительность : 1 ч. 39 м.
Вид битрейта : Постоянный
Битрейт : 192 Кбит/сек
Каналы : 2 канала
Расположение каналов : Front: L R
Частота : 44,1 КГц
Метод сжатия : С потерями
Размер потока : 137 Мбайт (9%)
Выравнивание : Разделение по промежуткам
Продолжительность промежутка : 42 мс. (1,00 видеокадр)
Время предзагрузки промежутка : 500 мс.
Трейлер
Download / Скачать

Хотите скачать бесплатно? Зарегистрируйтесь на сайте (ссылка на регистрацию). Pirat.ca - самый быстрый торрент трекер в рунете!

Как скачивать  ·   Что такое торрент  ·   Рейтинг и ограничения

bolin

Флибустьер

Пост 24-Сен-2015 20:09 (спустя 1 час 35 минут)

[Q] 

Спасибо поглядим!
[Профиль]  [ЛС] 

лысый 777

Морской Волк

Пост 24-Сен-2015 22:54 (спустя 2 часа 44 минуты)

[Q] 

надо посмотреть !!!
[Профиль]  [ЛС] 

sevensv

Легенда

2591

Пост 24-Сен-2015 23:33 (спустя 39 минут)

[Q] 

Спасибо!!! Лови бочку
[Профиль]  [ЛС] 

fanar

15

Пост 25-Сен-2015 00:40 (спустя 1 час 7 минут)

[Q] 

в каком месте тут комедия??
[Профиль]  [ЛС] 

Jek@

Легенда

Пост 25-Сен-2015 14:20 (спустя 13 часов)

[Q] 

Спасибо!!! .
[Профиль]  [ЛС] 

platon18

Гроза морей

Пост 26-Сен-2015 10:57 (спустя 20 часов)

[Q] 

производство: Ирландия, фильм о Москве....мдааа
[Профиль]  [ЛС] 

Artist fan

Штурман

Пост 29-Сен-2015 10:48 (спустя 2 дня 23 часа)

[Q] 

Хрень наверное
[Профиль]  [ЛС] 

asuslx

Шкипер

Пост 29-Сен-2015 21:07 (спустя 10 часов)

[Q] 

Ну совсем на современную Москву не похоже, ну ничем кроме видов города:
Ни людьми, ни атмосферой, ни одной приличной квартиры, ну как будто там везде ободранные обои и общарпинные подьезды, гопота, и все унылые.
Ну прямо темная параллельная реальность.
Ну может мне так нереально прет, что я вообще ни с чем таким не сталкивался ни разу.
[Профиль]  [ЛС] 

Innesa

Шкипер

Пост 30-Сен-2015 19:24 (спустя 22 часа)

[Q] 

Идея содрана из многих фильмов такого жанра, состав супер но не до конца, молодежь играет плохо, не поверил, лично мое мнение, не зацепило - сори
[Профиль]  [ЛС] 

rampage-2

Шкипер

Пост 01-Окт-2015 13:15 (спустя 17 часов)

[Q] 

Интересно, сейчас гляну, что там в Москве твориться!
Добавлено спустя 1 минута 51 секунда:
Спасибо!!! Раздоющему!!!!
[Профиль]  [ЛС] 

VictorSor

Штурман

Пост 17-Окт-2015 00:39 (спустя 15 дней)

[Q] 

Фильм хороший! (и качество вполне приемлемое)
Даже загорелся после просмотра почитать кто у них там автор сценария и кто такой режиссер Джонни О’Райлли, поскольку ребята точно в теме жизни в нерезиновой (хотя линия с конфликтом застройщика и чиновников и не совсем понятно раскрыта, как и не понял связи героев в той бедной квартирке с бабушкой и семьи пафосного героя Стоянова), респект и им и раздающему )
Добавлю, что такое же желание (почитать про авторов) было за последние годы только после просмотра "Тараса Бульбы", "Бабло" (the best!), "Духлесс" (cool!) и частично "Левиафан" и "Дурак"))
Еще добавлю: и Стоянов и Ефремов, да и все артисты в этом фильме - браво!! Голливуду наших не догнать )))
[Профиль]  [ЛС] 

Полтос

Флибустьер

Пост 17-Окт-2015 06:23 (спустя 5 часов)

[Q] 

Пессимистических характеров слишком много, а так - вполне житейские ситуации. По крайней мере это вам не Лефиафан Звягинцева. Для любителей посмотреть драму.
На любителя

_________________
Первый закон Прапорщика: Всё что поднимаемо - относительно!)
[Профиль]  [ЛС] 

Alex Yz

Гроза морей

Пост 19-Окт-2015 21:20 (спустя 2 дня 14 часов)

[Q] 

Спасибо, Вы лучшие!
[Профиль]  [ЛС] 

metampsy

Корсар

Пост 26-Окт-2015 03:12 (спустя 6 дней)

[Q] 

Что это? Кто здеся?
[Профиль]  [ЛС] 

Пост 31-Окт-2015 09:28 (спустя 5 дней)

Топик был перенесен из форума Новинки (HD|DVD|BD| TV|SAT|PDTV| - Rips) в форум Российские фильмы
aleksey99
 
Показать сообщения:    
Ответить на тему

Текущее время: Сегодня 09:59

Часовой пояс: GMT + 4



Вы не можете начинать темы
Вы не можете отвечать на сообщения
Вы не можете редактировать свои сообщения
Вы не можете удалять свои сообщения
Вы не можете голосовать в опросах
Вы не можете прикреплять файлы к сообщениям
Вы не можете скачивать файлы

▼ Вниз