ML
     
  Уважаемый Гость!
Вы можете поддержать проект и зарегистрироваться у наших партнеров - онлайн-стратегия MyLands. При регистрации в игре Вы получите код, который сможете активировать после регистрации на pirat.ca и получить 1000 дублонов.

Ваш код:
2a3da67fd641d69eeebb7cb965232435a70eaa24
 
     

Развод по собственному желанию (Илья Северов) [2015 г., комедия, мелодрама, WEB-DLRip] Original (RUS)

Ответить на тему
 
Автор
Сообщение

Пост 08-Окт-2015 08:48

[Q] 

aleksey99

--Развод по собственному желанию-- Производство: Россия, Ленфильм
Год выпуска: 2015 г.
Жанр: комедия, мелодрама
Продолжительность: 01:25:17--Российская премьера: 10 сентября 2015, «Ленфильм»--Режиссер: Илья Северов--В ролях: Константин Юшкевич, Наталья Суркова, Вячеслав Коробицин, Юрий Гальцев, Наталья Ткаченко, Любовь Виролайнен, Антон Пулит, Артем Веселов, Екатерина Зорина, Артём Анчуков--Описание: Тренер, велогонщик в прошлом, Сергей и основательница сети книжных магазинов Елена уже двадцать лет вместе. Из неожиданно разгоревшейся супружеской ссоры возникает серьезный скандал, грозящий перерасти в развод.
Сиюминутное решение Сергея — начать все заново. Он уходит из дома и не подозревает, что жизнь может кардинально поменяться всего за несколько часов. Круговерть невероятных приключений, в которые втягивает лучший друг, и безумных ситуаций с близкими проверят на прочность крепость семейных уз Сергея и Елены.-- --Качество видео: WEB-DLRip
Контейнер: AVI
Видео кодек: XviD
Аудио кодек: AC3
Видео: 720x384 (1.88:1), 25 fps, XviD build 50 ~1900 kbps avg, 0.28 bit/pixel
Аудио: 48 kHz, AC3 Dolby Digital, 2/0 (L,R) ch, ~384 kbps
Cубтитры: отсутствуют
Общее
Полное имя : D:\Torrent2\Razvod.po.sobstvennomu.zelaniu.2015.WEB-DLRip.avi
Формат : AVI
Формат/Информация : Audio Video Interleave
Размер файла : 1,37 Гбайт
Продолжительность : 1 ч. 25 м.
Общий поток : 2295 Кбит/сек
Программа кодирования : VirtualDubMod 1.5.10.2 (build 2540/release)
Библиотека кодирования : VirtualDubMod build 2540/release
Видео
Идентификатор : 0
Формат : MPEG-4 Visual
Профиль формата : Advanced [email protected]
Параметр BVOP формата : 2
Параметр QPel формата : Нет
Параметр GMC формата : Без точки перехода
Параметр матрицы формата : Default (MPEG)
Идентификатор кодека : XVID
Идентификатор кодека/Подсказка : XviD
Продолжительность : 1 ч. 25 м.
Битрейт : 1901 Кбит/сек
Ширина : 720 пикселей
Высота : 384 пикселя
Соотношение сторон : 1,85:1
Частота кадров : 25,000 кадров/сек
Цветовое пространство : YUV
Субдискретизация насыщенности : 4:2:0
Битовая глубина : 8 бит
Тип развёртки : Прогрессивная
Метод сжатия : С потерями
Бит/(Пиксели*Кадры) : 0.275
Размер потока : 1,13 Гбайт (83%)
Библиотека кодирования : XviD 1.2.1 (UTC 2008-12-04)
Аудио
Идентификатор : 1
Формат : AC-3
Формат/Информация : Audio Coding 3
Расширение режима : CM (complete main)
Параметр Endianness формата : Big
Идентификатор кодека : 2000
Продолжительность : 1 ч. 25 м.
Вид битрейта : Постоянный
Битрейт : 384 Кбит/сек
Каналы : 2 канала
Расположение каналов : Front: L R
Частота : 48,0 КГц
Метод сжатия : С потерями
Размер потока : 234 Мбайт (17%)
Выравнивание : Разделение по промежуткам
Продолжительность промежутка : 40 мс. (1,00 видеокадр)
Время предзагрузки промежутка : 500 мс.
Трейлер
Download / Скачать

Хотите скачать бесплатно? Зарегистрируйтесь на сайте (ссылка на регистрацию). Pirat.ca - самый быстрый торрент трекер в рунете!

Как скачивать  ·   Что такое торрент  ·   Рейтинг и ограничения

Skala973

Корсар

Пост 13-Окт-2015 18:53 (спустя 5 дней)

[Q] 

Спасибо за раздачу.
А фильм... Ну вот если вообще делать нечего, и смотреть тоже. Ну тогда можно разок глянуть.
Слишком как-то наиграно.
[Профиль]  [ЛС] 

platon18

Гроза морей

Пост 14-Окт-2015 11:19 (спустя 16 часов)

[Q] 

терпеть не могу Гальцева
[Профиль]  [ЛС] 

Пост 14-Ноя-2015 09:32 (спустя 30 дней)

Топик был перенесен из форума Новинки (HD|DVD|BD| TV|SAT|PDTV| - Rips) в форум Российские фильмы
aleksey99
 
Показать сообщения:    
Ответить на тему

Текущее время: Сегодня 01:15

Часовой пояс: GMT + 4



Вы не можете начинать темы
Вы не можете отвечать на сообщения
Вы не можете редактировать свои сообщения
Вы не можете удалять свои сообщения
Вы не можете голосовать в опросах
Вы не можете прикреплять файлы к сообщениям
Вы не можете скачивать файлы

▼ Вниз