ML
     
  Уважаемый Гость!
Вы можете поддержать проект и зарегистрироваться у наших партнеров - онлайн-стратегия MyLands. При регистрации в игре Вы получите код, который сможете активировать после регистрации на pirat.ca и получить 1000 дублонов.

Ваш код:
aec9a4a936117fb450ba69e519991a0465404b1d
 
     

Орлеан (Андрей Прошкин) [2015 г., комедия, триллер, WEB-DLRip] Original (RUS) [iTunes]

Ответить на тему
 
Автор
Сообщение

Пост 17-Окт-2015 23:53

[Q] 

aleksey99

--Орлеан-- Производство: Россия, Киностудия СНТ Фильм
Год выпуска: 2015 г.
Жанр: комедия, триллер
Продолжительность: 01:50:19--Российская премьера: 17 сентября 2015, «Централ Партнершип»--Режиссер: Андрей Прошкин--В ролях: Елена Лядова, Виктор Сухоруков, Виталий Хаев, Олег Ягодин, Тимофей Трибунцев, Павел Табаков, Евгений Сытый, Александр Бавтриков, Азамат Нигманов, Полина Шулика--Описание: На русский провинциальный город с необычным названием Орлеан надвигается буря. Пока что о ней не догадываются его жители: парикмахерша Лида спит с кем ни попадя; врач Рудик водит к себе девиц, пользуясь служебным положением; полицейский не гнушается убийством; а фокусник, кажется, и вправду перепиливает девушек на сцене.-- --Качество видео: WEB-DLRip
Контейнер: AVI
Видео кодек: XviD
Аудио кодек: AC3
Видео: 720x304 (2.37:1), 24 fps, XviD build 50 ~1502 kbps avg, 0.29 bit/pixel
Аудио: 48 kHz, AC3 Dolby Digital, 3/2 (L,C,R,l,r) + LFE ch, ~384 kbps
Cубтитры: отсутствуют
Общее
Полное имя : D:\Torrent 2\0pLe4H.2015.O.WEB-DLRip.avi
Формат : AVI
Формат/Информация : Audio Video Interleave
Размер файла : 1,46 Гбайт
Продолжительность : 1 ч. 50 м.
Общий поток : 1896 Кбит/сек
Программа кодирования : VirtualDubMod 1.5.10.3 | www.virtualdub-fr.org || (build 2550/release)
Библиотека кодирования : VirtualDubMod build 2550/release
Видео
Идентификатор : 0
Формат : MPEG-4 Visual
Профиль формата : Advanced [email protected]
Параметр BVOP формата : 2
Параметр QPel формата : Нет
Параметр GMC формата : Без точки перехода
Параметр матрицы формата : Default (H.263)
Идентификатор кодека : XVID
Идентификатор кодека/Подсказка : XviD
Продолжительность : 1 ч. 50 м.
Битрейт : 1503 Кбит/сек
Ширина : 720 пикселей
Высота : 304 пикселя
Соотношение сторон : 2,35:1
Частота кадров : 24,000 кадра/сек
Цветовое пространство : YUV
Субдискретизация насыщенности : 4:2:0
Битовая глубина : 8 бит
Тип развёртки : Прогрессивная
Метод сжатия : С потерями
Бит/(Пиксели*Кадры) : 0.286
Размер потока : 1,16 Гбайт (79%)
Библиотека кодирования : XviD 1.2.1 (UTC 2008-12-04)
Аудио
Идентификатор : 1
Формат : AC-3
Формат/Информация : Audio Coding 3
Расширение режима : CM (complete main)
Параметр Endianness формата : Big
Идентификатор кодека : 2000
Продолжительность : 1 ч. 50 м.
Вид битрейта : Постоянный
Битрейт : 384 Кбит/сек
Каналы : 6 каналов
Расположение каналов : Front: L C R, Side: L R, LFE
Частота : 48,0 КГц
Метод сжатия : С потерями
Размер потока : 303 Мбайт (20%)
Выравнивание : Разделение по промежуткам
Продолжительность промежутка : 42 мс. (1,00 видеокадр)
Время предзагрузки промежутка : 500 мс.
Трейлер
Download / Скачать

Хотите скачать бесплатно? Зарегистрируйтесь на сайте (ссылка на регистрацию). Pirat.ca - самый быстрый торрент трекер в рунете!

Как скачивать  ·   Что такое торрент  ·   Рейтинг и ограничения

Роман1412

Морской Волк

Пост 18-Окт-2015 00:51 (спустя 58 минут)

[Q] 

Кто смотрел? Что скажите о фильме?
[Профиль]  [ЛС] 

berezeca

Корсар

Пост 18-Окт-2015 01:14 (спустя 22 минуты)

[Q] 

Спасибо за фильм
[Профиль]  [ЛС] 

avn2015

Корсар

Пост 18-Окт-2015 12:23 (спустя 11 часов)

[Q] 

Спасибо!!!
[Профиль]  [ЛС] 

polyk

Флибустьер

Пост 18-Окт-2015 12:58 (спустя 35 минут)

[Q] 

как кино????????
[Профиль]  [ЛС] 

Су-34

Гроза морей

10390

Пост 18-Окт-2015 20:28 (спустя 7 часов)

[Q] 

709096как кино????????
Кино как кино!!!
[Профиль]  [ЛС] 

pvm

Корсар

Пост 19-Окт-2015 18:25 (спустя 21 час)

[Q] 

Елена Лядова, опять обнаженка?
[Профиль]  [ЛС] 

alexis164

Морской Волк

Пост 19-Окт-2015 19:19 (спустя 53 минуты)

[Q] 

Совершенно не прописаны типажи и характеры персонажей. Один текст и одна мысль на всех действующих лиц. Самое ужасное - это саундтрек. Смотрели втроём с друзьями, все музыканты, хоть и с совершенно различными музыкальными вкусами. Но тут мы сошлись на все 100 % - ЭТО слушать нельзя. У одной группы на вокале кастрат, поющий матом на плохом английском языке, у другой группы вокалист недавно вышел из тюрьмы,или же просто курит лет с 5 "беломор". Идея у фильма есть, при всём - довольно интересная, да вот только не смогли авторы киноленты ничего вытянуть на свет божий.
Шляпа. Ой как стыдно-то...
[Профиль]  [ЛС] 

terminator199

Штурман

Пост 20-Окт-2015 01:58 (спустя 6 часов)

[Q] 

такого шлака давно не видел. а реклама то какая была.. ууу . аж идти в кино хотел. пыль в глаза. концовка на перемотке посмотрена. бред бредовый. не тратте время.
[Профиль]  [ЛС] 

platon18

Гроза морей

Пост 20-Окт-2015 13:10 (спустя 11 часов)

[Q] 

а вещали что современная Мастер и Маргарита, обманули?
[Профиль]  [ЛС] 

Skala973

Корсар

Пост 20-Окт-2015 19:25 (спустя 6 часов)

[Q] 

Довольно мутный фильм.
Нет, разумеется там авангард, альтернативное вИдение ситуации, и всё такое прочее. Но нафига тогда этот человек режиссёром стал?
Уж лучше "Левиафан" ещё разок глянуть, чем эту ерунду.
А за раздачу спасибо.
[Профиль]  [ЛС] 

Grizlitlt

Лоцман

Пост 21-Окт-2015 19:05 (спустя 23 часа)

[Q] 

709514а вещали что современная Мастер и Маргарита, обманули?
Даже рядом не стояло....
[Профиль]  [ЛС] 

vesna_7777

Корсар

Пост 06-Ноя-2015 21:48 (спустя 16 дней)

[Q] 

непонятный бред.
[Профиль]  [ЛС] 

Dead Mazay

Пост 07-Ноя-2015 10:53 (спустя 13 часов)

[Q] 

ёп
[Профиль]  [ЛС] 

Пират Пиратович

2989

Пост 07-Ноя-2015 20:42 (спустя 9 часов)

[Q] 

Описание: На русский провинциальный город с необычным названием Орлеан надвигается буря. Пока что о ней не догадываются его жители: парикмахерша Лида спит с кем ни попадя; врач Рудик водит к себе девиц, пользуясь служебным положением; полицейский не гнушается убийством; а фокусник, кажется, и вправду перепиливает девушек на сцене.
Одни Плохиши в фильме.
Лида спит с кем ни попадя.
Рудик водит к себе девиц... Интересно))) А Рудик Лиду водил к себе?
Раздающему респект!

_________________
[Профиль]  [ЛС] 

Skat.56

Гроза морей

448

Пост 08-Ноя-2015 17:29 (спустя 20 часов)

[Q] 

чет я не понял... 404 ошибка
[Профиль]  [ЛС] 

KoNiaL_KCC

Гроза морей

Пост 10-Ноя-2015 18:52 (спустя 2 дня 1 час)

[Q] 

фильм просмотрен, не умеют в россии снимать нормальное кино, такой полный бред не смог досмотреть нормально, быстрой прокруткой только. Отказать Трафик потрачен зря!
[Профиль]  [ЛС] 

Пост 19-Ноя-2015 07:43 (спустя 8 дней)

Топик был перенесен из форума Новинки (HD|DVD|BD| TV|SAT|PDTV| - Rips) в форум Российские фильмы
aleksey99
 
Показать сообщения:    
Ответить на тему

Текущее время: Сегодня 02:21

Часовой пояс: GMT + 4



Вы не можете начинать темы
Вы не можете отвечать на сообщения
Вы не можете редактировать свои сообщения
Вы не можете удалять свои сообщения
Вы не можете голосовать в опросах
Вы не можете прикреплять файлы к сообщениям
Вы не можете скачивать файлы

▼ Вниз