ML
     
  Уважаемый Гость!
Вы можете поддержать проект и зарегистрироваться у наших партнеров - онлайн-стратегия MyLands. При регистрации в игре Вы получите код, который сможете активировать после регистрации на pirat.ca и получить 1000 дублонов.

Ваш код:
59354507ba913a0948d1a8f2e30f2e04c4cd7b9b
 
     

Последний вагон. Весна (Антон Калинкин) [2015 г., триллер, WEB-DLRip] Original (RUS)[iTunes]

Ответить на тему
 
Автор
Сообщение

Пост 01-Ноя-2015 21:53

[Q] 

aleksey99

--Последний вагон. Весна-- Производство: Россия, Медиа группа EXIT production, Red Carpet Studio, «ТАН-Фильм»
Год выпуска: 2015 г.
Жанр: триллер
Продолжительность: 01:45:35--Премьера (РФ): 17 сентября 2015, «Кинография»--Режиссер: Антон Калинкин--В ролях: Илья Любимов, Мария Андреева, Анна Чурина, Борис Хвошнянский, Тимофей Трибунцев, Петар Зекавица, Сергей Греков, Алексей Ингелевич, Сергей Комаров, Екатерина Маликова--Описание: Главный герой Виктор — молодой тренер по боксу, у которого все великолепно: хорошая работа, красивая девушка рядом, веселые друзья. Однако жизнь приготовила ему серьезные испытания — в одну секунду все меняется и он становится главным подозреваемым в трех убийствах. Но судьба дает ему шанс…-- --Качество видео: WEB-DLRip
Контейнер: AVI
Видео кодек: XviD
Аудио кодек: AC3
Видео: 720x304 (2.37:1), 24 fps, XviD build 50 ~1578 kbps avg, 0.30 bit/pixel
Аудио: 48 kHz, AC3 Dolby Digital, 3/2 (L,C,R,l,r) + LFE ch, ~384 kbps
Cубтитры: отсутствуют
Общее
Полное имя : H:\Torrent2\PoClednyj.Vag0H.BeCH4.2015.O.WEB-DLRip.1.45GB.avi
Формат : AVI
Формат/Информация : Audio Video Interleave
Размер файла : 1,45 Гбайт
Продолжительность : 1 ч. 45 м.
Общий поток : 1972 Кбит/сек
Программа кодирования : VirtualDubMod 1.5.10.2 (build 2540/release)
Библиотека кодирования : VirtualDubMod build 2540/release
Видео
Идентификатор : 0
Формат : MPEG-4 Visual
Профиль формата : Advanced [email protected]
Параметр BVOP формата : 2
Параметр QPel формата : Нет
Параметр GMC формата : Без точки перехода
Параметр матрицы формата : Default (MPEG)
Идентификатор кодека : XVID
Идентификатор кодека/Подсказка : XviD
Продолжительность : 1 ч. 45 м.
Битрейт : 1579 Кбит/сек
Ширина : 720 пикселей
Высота : 304 пикселя
Соотношение сторон : 2,35:1
Частота кадров : 24,000 кадра/сек
Цветовое пространство : YUV
Субдискретизация насыщенности : 4:2:0
Битовая глубина : 8 бит
Тип развёртки : Прогрессивная
Метод сжатия : С потерями
Бит/(Пиксели*Кадры) : 0.301
Размер потока : 1,16 Гбайт (80%)
Библиотека кодирования : XviD 1.2.1 (UTC 2008-12-04)
Аудио
Идентификатор : 1
Формат : AC-3
Формат/Информация : Audio Coding 3
Расширение режима : CM (complete main)
Параметр Endianness формата : Big
Идентификатор кодека : 2000
Продолжительность : 1 ч. 45 м.
Вид битрейта : Постоянный
Битрейт : 384 Кбит/сек
Каналы : 6 каналов
Расположение каналов : Front: L C R, Side: L R, LFE
Частота : 48,0 КГц
Метод сжатия : С потерями
Размер потока : 290 Мбайт (19%)
Выравнивание : Разделение по промежуткам
Продолжительность промежутка : 42 мс. (1,00 видеокадр)
Время предзагрузки промежутка : 500 мс.
Трейлер
Download / Скачать

Хотите скачать бесплатно? Зарегистрируйтесь на сайте (ссылка на регистрацию). Pirat.ca - самый быстрый торрент трекер в рунете!

Как скачивать  ·   Что такое торрент  ·   Рейтинг и ограничения

pdb08

Легенда

Пост 01-Ноя-2015 22:34 (спустя 41 минута)

[Q] 

Автору респект!!! .

_________________
[Профиль]  [ЛС] 

EDVAR

Легенда

Пост 01-Ноя-2015 22:40 (спустя 5 минут)

[Q] 

Раздающему респект!

_________________
"Как других судить-вы судьи.Как себя-вы адвокаты"
[Профиль]  [ЛС] 

ник ример

Морской Волк

Пост 01-Ноя-2015 23:05 (спустя 25 минут)

[Q] 

Автору респект!!! Спасибо!!! заценим
[Профиль]  [ЛС] 

Slavkovich_

Пост 01-Ноя-2015 23:25 (спустя 19 минут)

[Q] 

одену памперсы, буду лежать и смотреть. обоссусь.... так обоссусь в памперс
[Профиль]  [ЛС] 

MaXoR

Флибустьер

1473

Пост 02-Ноя-2015 00:07 (спустя 42 минуты)

[Q] 

Мыло или годный триллер?

_________________
Живы будем - не помрем!
[Профиль]  [ЛС] 

vinylovi4

Гроза морей

Пост 02-Ноя-2015 08:45 (спустя 8 часов)

[Q] 

кто уже посмотрел - отпишите пжл :)
[Профиль]  [ЛС] 

alex_dry

Гроза морей

Пост 02-Ноя-2015 11:12 (спустя 2 часа 26 минут)

[Q] 

Как фильм? Кто смотрел?
[Профиль]  [ЛС] 

Vkach

Корсар

Пост 02-Ноя-2015 11:51 (спустя 39 минут)

[Q] 

спасибо. заценим.
[Профиль]  [ЛС] 

Innesa

Шкипер

Пост 02-Ноя-2015 19:52 (спустя 8 часов)

[Q] 

да по трейлеру все ясно, почитать описание зблев.......... шедовриально ХЗ!!! лично мое мнение - качать не буду
[Профиль]  [ЛС] 

Vintorezov REG 39

Легенда

176

Пост 02-Ноя-2015 23:18 (спустя 3 часа)

[Q] 

Большое спасибо посмотрим.
[Профиль]  [ЛС] 

Barskavkaz

Корсар

Пост 20-Ноя-2015 02:46 (спустя 17 дней)

[Q] 

Не могу понять) как фильм то?))) смотреть стоит или нет?

_________________
Д.Тк
[Профиль]  [ЛС] 

eevgenu45

Морской Волк

Пост 20-Ноя-2015 10:08 (спустя 7 часов)

[Q] 

развернутые комменты...
[Профиль]  [ЛС] 

Belyi20142014

Лоцман

Пост 20-Ноя-2015 15:33 (спустя 5 часов)

[Q] 

посмотрите трейлер на ютубе и все понятно будет, смотреть или нет
[Профиль]  [ЛС] 

logr

Морской Волк

151

Пост 20-Ноя-2015 17:37 (спустя 2 часа 3 минуты)

[Q] 

По трейлеру окончательно не понятно, стоит ли смотреть. В последнее время наше кино совсем не радует.
[Профиль]  [ЛС] 

co6aka 6e3 yxa

Морской Волк

Пост 25-Ноя-2015 09:21 (спустя 4 дня)

[Q] 

Мне фильм понравился...норм дедективчик, еслиб еще судью убрали (другому роль дали)....С женой посмотрели не отрываясь

_________________
А незнакомок мы целуем робко
[Профиль]  [ЛС] 

Gari4

Флибустьер

Пост 26-Ноя-2015 21:57 (спустя 1 день 12 часов)

[Q] 

согласен с мнением тупого кино - качать тоже не стану, автору за труды спасибо.
[Профиль]  [ЛС] 

RomanTroizk

Морской Волк

Пост 02-Дек-2015 21:41 (спустя 5 дней)

[Q] 

фильм разок можно глянуть Автору респект!!!
[Профиль]  [ЛС] 

Пост 05-Дек-2015 08:57 (спустя 2 дня 11 часов)

Топик был перенесен из форума Новинки (HD|DVD|BD| TV|SAT|PDTV| - Rips) в форум Российские фильмы
aleksey99
 
Показать сообщения:    
Ответить на тему

Текущее время: Сегодня 16:06

Часовой пояс: GMT + 4



Вы не можете начинать темы
Вы не можете отвечать на сообщения
Вы не можете редактировать свои сообщения
Вы не можете удалять свои сообщения
Вы не можете голосовать в опросах
Вы не можете прикреплять файлы к сообщениям
Вы не можете скачивать файлы

▼ Вниз