ML
     
  Уважаемый Гость!
Вы можете поддержать проект и зарегистрироваться у наших партнеров - онлайн-стратегия MyLands. При регистрации в игре Вы получите код, который сможете активировать после регистрации на pirat.ca и получить 1000 дублонов.

Ваш код:
bb0cb47ee786a33f751af5a500dd264c9487bfac
 
     

Родина (Петр Буслов) [2015 г., драма, триллер, WEB-DLRip] Original (RUS)[iTunes]

Ответить на тему
 
Автор
Сообщение

Пост 09-Ноя-2015 07:28

[Q] 

aleksey99

--Родина--«Мы с тобой одной крови. Ты и я»-- Производство: Россия / Актябрь фильм, Кинокомпания CTB
Год выпуска: 2015 г.
Жанр: драма, триллер
Продолжительность: 02:04:38--Мировая премьера: 7 ноября 2015
Российская премьера: 15 октября 2015, «Наше Кино»--Режиссер: Петр Буслов--В ролях: Андрей Смоляков, Пётр Фёдоров, Любовь Аксенова, Павел Личникофф, Екатерина Волкова, Сергей Бадюк, Андрей Мерзликин, Кирилл Кяро, Александр Робак, Максим Лагашкин--Описание: Здесь ночи слепят огнями рейвов, дни баюкают шумом волн, песок похож на золото, деньги — просто бумага, живи и не тужи, а если совсем повезет, встретишь Бога. Здесь — это Индия, Гоа, куда люди со всего мира отправляются, чтобы найти или потерять себя. Ева, дочь богатого русского, попадает сюда не по своей воле — отец психанул и высадил ночью из частного самолёта на первой подвернувшейся полосе. Когда отец одумался, девушку уже увлёк лабиринт человеческих судеб. Здесь новосибирский парень Макар жадно ищет просветления — до конца отпуска остался один день. Здесь Алексей и Кристина прощаются с семейным счастьем, а мелкие бесы на байках Димон и Леня испытывают мир на прочность. Здесь Гуру (только не надо его так называть!) Космос дарит препараты, сокращающие путь в другую реальность до одного щелчка. Здесь разные судьбы. Разные люди. Но у всех одна Родина. Не любить которую легко, когда она рядом.-- --Качество видео: WEB-DLRip
Контейнер: AVI
Видео кодек: XviD
Аудио кодек: AC3
Видео: 720x304 (2.37:1), 24 fps, XviD build 50 ~1960 kbps avg, 0.37 bit/pixel
Аудио: 48 kHz, AC3 Dolby Digital, 3/2 (L,C,R,l,r) + LFE ch, ~384 kbps
Cубтитры: отсутствуют
Общее
Полное имя : H:\Torrent2\P0dYH4.2015.D.WEB-DLRip.avi
Формат : AVI
Формат/Информация : Audio Video Interleave
Профиль формата : OpenDML
Размер файла : 2,05 Гбайт
Продолжительность : 2 ч. 4 м.
Общий поток : 2356 Кбит/сек
Программа кодирования : VirtualDubMod 1.5.10.3 | www.virtualdub-fr.org || (build 2550/release)
Библиотека кодирования : VirtualDubMod build 2550/release
Видео
Идентификатор : 0
Формат : MPEG-4 Visual
Профиль формата : Advanced [email protected]
Параметр BVOP формата : 2
Параметр QPel формата : Нет
Параметр GMC формата : Без точки перехода
Параметр матрицы формата : Default (MPEG)
Идентификатор кодека : XVID
Идентификатор кодека/Подсказка : XviD
Продолжительность : 2 ч. 4 м.
Битрейт : 1960 Кбит/сек
Ширина : 720 пикселей
Высота : 304 пикселя
Соотношение сторон : 2,35:1
Частота кадров : 24,000 кадра/сек
Цветовое пространство : YUV
Субдискретизация насыщенности : 4:2:0
Битовая глубина : 8 бит
Тип развёртки : Прогрессивная
Метод сжатия : С потерями
Бит/(Пиксели*Кадры) : 0.373
Размер потока : 1,71 Гбайт (83%)
Библиотека кодирования : XviD 1.2.1 (UTC 2008-12-04)
Аудио
Идентификатор : 1
Формат : AC-3
Формат/Информация : Audio Coding 3
Расширение режима : CM (complete main)
Параметр Endianness формата : Big
Идентификатор кодека : 2000
Продолжительность : 2 ч. 4 м.
Вид битрейта : Постоянный
Битрейт : 384 Кбит/сек
Каналы : 6 каналов
Расположение каналов : Front: L C R, Side: L R, LFE
Частота : 48,0 КГц
Метод сжатия : С потерями
Размер потока : 342 Мбайт (16%)
Выравнивание : Разделение по промежуткам
Продолжительность промежутка : 42 мс. (1,00 видеокадр)
Время предзагрузки промежутка : 500 мс.
Трейлер
Download / Скачать

Хотите скачать бесплатно? Зарегистрируйтесь на сайте (ссылка на регистрацию). Pirat.ca - самый быстрый торрент трекер в рунете!

Как скачивать  ·   Что такое торрент  ·   Рейтинг и ограничения

Роман1412

Морской Волк

Пост 09-Ноя-2015 23:28 (спустя 16 часов)

[Q] 

как фильм? кто смотрел
[Профиль]  [ЛС] 

Metelitsa

Морской Волк

Пост 14-Ноя-2015 15:18 (спустя 4 дня)

[Q] 

Описание какое-то мутное, трейлер - строго соответствует описанию. Есть ощущение что фильм ни о чем.
Может кто из посмотревших опровергнет мою вангу?
[Профиль]  [ЛС] 

VictorSor

Штурман

Пост 14-Ноя-2015 16:56 (спустя 1 час 38 минут)

[Q] 

Отвечаю из другой ветки (этого же фильма)
715250
714274
Неужели наши начали создавать нормальные фильмы?
нет!!!не тратьте время на это убожество..
Полностью поддерживаю, более того - неприкрытая реклама наркотиков (вплоть до инструктажа где и как), кто спонсоры этой гадости - наркодилеры ??
[Профиль]  [ЛС] 

logr

Морской Волк

151

Пост 14-Ноя-2015 22:15 (спустя 5 часов)

[Q] 

Фильм по сценарию-повести моего друга Андрея Мигачева.
Спасибо за раздачу!
Спасибо!!! Автору респект!!!
[Профиль]  [ЛС] 

vinylovi4

Гроза морей

Пост 14-Ноя-2015 22:15 (спустя 5 секунд)

[Q] 

716010Описание какое-то мутное, трейлер - строго соответствует описанию. Есть ощущение что фильм ни о чем.
Может кто из посмотревших опровергнет мою вангу?
дык возьми сам и посмотри! чего проще то?!...
[Профиль]  [ЛС] 

fanar

15

Пост 15-Ноя-2015 01:19 (спустя 3 часа)

[Q] 

ребята, не тратьте свое время. фильм - бессмысленная ерунда Не качайте! Отказать
[Профиль]  [ЛС] 

bs_z03

Шкипер

Пост 15-Ноя-2015 08:51 (спустя 7 часов)

[Q] 

не могу сказать, что фильм плохой. Но после просмотра остался осадок какой то неприятный.
Посмотреть стоит.Кто не смотрел - качайте.
[Профиль]  [ЛС] 

AlienAmigo

Шкипер

Пост 19-Ноя-2015 21:17 (спустя 4 дня)

[Q] 

честно говоря, вообще не понял ради чего всё наворотили...
[Профиль]  [ЛС] 

damhsn

Штурман

Пост 20-Ноя-2015 14:52 (спустя 17 часов)

[Q] 

По-мне так фильм обычная чернуха. Про местных продажных полицаев, отечественных наркоманов, неформалов, мелких торговцев наркотиками и просто дебилов, отдыхающих и проживающих в Индии. Фильм не правильно назвали - не Родина, а соотечественники. На любителя
[Профиль]  [ЛС] 

nalim-73

Боцман

Пост 08-Янв-2016 14:51 (спустя 1 месяц 17 дней)

[Q] 

Спасибо!!! Мне понравилось
[Профиль]  [ЛС] 

adf854

Лоцман

Пост 21-Фев-2016 18:14 (спустя 1 месяц 13 дней)

[Q] 

Торчковая байда. Чернуха.
[Профиль]  [ЛС] 

paradox113

Шкипер

16

Пост 07-Мар-2016 00:55 (спустя 14 дней)

[Q] 

Фильм на любителя, но мне понравился. На мой взгляд, реально хорошо отражает поиск хоть какого-то смысла жизни на фоне современной действительности... А чернухи тут "нэма" - она вся в телевизоре и прочих новостях... Тута философия на фоне экзотической природы Индии - Гоа...
[Профиль]  [ЛС] 

Псих

87

Пост 07-Мар-2016 05:17 (спустя 4 часа)

[Q] 

На любителя

_________________
Не забываем говорить
[Профиль]  [ЛС] 
Показать сообщения:    
Ответить на тему

Текущее время: Сегодня 02:19

Часовой пояс: GMT + 4



Вы не можете начинать темы
Вы не можете отвечать на сообщения
Вы не можете редактировать свои сообщения
Вы не можете удалять свои сообщения
Вы не можете голосовать в опросах
Вы не можете прикреплять файлы к сообщениям
Вы не можете скачивать файлы

▼ Вниз