ML
     
  Уважаемый Гость!
Вы можете поддержать проект и зарегистрироваться у наших партнеров - онлайн-стратегия MyLands. При регистрации в игре Вы получите код, который сможете активировать после регистрации на pirat.ca и получить 1000 дублонов.

Ваш код:
21acd5966619d49ad0b90c3305467b4646cc11a8
 
     

Стань мной (Валерий Рожко) [ 2012 , Россия , мелодрама , SATRip]

Ответить на тему
 
Автор
Сообщение

Пост 28-Янв-2012 00:00

[Q] 

Smaq

Морской Волк

Стань мной-
Страна: Россия
Жанр: мелодрама
Год выпуска: 2012
Продолжительность: 01:31:03-Перевод: Не требуется
Режиссер: Валерий Рожко
В ролях: Олеся Судзиловская, Константин Стрельников, Екатерина Никитина-Описание: Надя и Эмма - близкие подруги. Надя - владелица модного ресторана, которым она управляла вместе с отцом до его смерти. Эмма же работает внештатным корреспондентом в какой-то малюсенькой газете. Во время задушевного разговора подруги признаются друг другу, что устали каждая от своей жизни. Надя предлагает на год поменяться местами.
Она оформляет доверенность на Эмму и представляет ее персоналу ресторана, как новую владелицу. Пока Эмма неумело пытается управлять бизнесом Надежды, последняя делает блестящую карьеру журналистки и наслаждается общением с Никитой, бывшим однокурсником, который еще с института влюблен в нее. Вдруг тяжело заболевает мать Нади, ей требуется дорогостоящая операция. Надежда обнаруживает, что Эмма продала все ее имущество. Но и этого Эмме мало, она хочет завоевать сердце Никиты, в которого давно влюблена…-
-Качество: SATRip
Контейнер: AVI
Видео: XviD, 704x400 (16:9), 2094 kbps, 25 fps, 0,298 bpp
Аудио: MP3 / 2.0 / 48 kHz / 128 kbps /-
General
Complete name : C:\стань мной\Stan.mnoy.2012.XviD.SATRip.avi
Format : AVI
Format/Info : Audio Video Interleave
File size : 1.42 GiB
Duration : 1h 31mn
Overall bit rate : 2 233 Kbps
Writing application : VirtualDubMod 1.5.10.3 | www.virtualdub-fr.org || (build 2550/release)
Writing library : VirtualDubMod build 2550/release
Video
ID : 0
Format : MPEG-4 Visual
Format profile : Advanced [email protected]
Format settings, BVOP : 1
Format settings, QPel : No
Format settings, GMC : No warppoints
Format settings, Matrix : Default (H.263)
Codec ID : XVID
Codec ID/Hint : XviD
Duration : 1h 31mn
Bit rate : 2 095 Kbps
Width : 704 pixels
Height : 400 pixels
Display aspect ratio : 16:9
Frame rate : 25.000 fps
Color space : YUV
Chroma subsampling : 4:2:0
Bit depth : 8 bits
Scan type : Progressive
Compression mode : Lossy
Bits/(Pixel*Frame) : 0.298
Stream size : 1.33 GiB (94%)
Writing library : XviD 64
Audio
ID : 1
Format : MPEG Audio
Format version : Version 1
Format profile : Layer 3
Mode : Joint stereo
Mode extension : MS Stereo
Codec ID : 55
Codec ID/Hint : MP3
Duration : 1h 31mn
Bit rate mode : Constant
Bit rate : 128 Kbps
Channel(s) : 2 channels
Sampling rate : 48.0 KHz
Compression mode : Lossy
Stream size : 83.4 MiB (6%)
Alignment : Aligned on interleaves
Interleave, duration : 40 ms (1.00 video frame)
Interleave, preload duration : 504 ms
Writing library : LAME3.98r
Encoding settings : -m j -V 4 -q 2 -lowpass 17 -b 128
Download / Скачать

Хотите скачать бесплатно? Зарегистрируйтесь на сайте (ссылка на регистрацию). Pirat.ca - самый быстрый торрент трекер в рунете!

Как скачивать  ·   Что такое торрент  ·   Рейтинг и ограничения



Последний раз редактировалось: Smaq (2012-01-28 01:07), всего редактировалось 1 раз

Пост 28-Янв-2012 11:18 (спустя 11 часов)

Топик был перенесен из форума Художественные фильмы (Зарубежное кино) в форум Российские фильмы

Skinwalker
 

ficus42

Корсар

Пост 28-Янв-2012 11:57 (спустя 11 часов)

[Q] 

Будем посмотреть.
[Профиль]  [ЛС] 

Evgeniy3102

Корсар

3

Пост 30-Янв-2012 11:19 (спустя 1 день 23 часа)

[Q] 

cy Спасибо за фильм, вот только скорости б поддали !!! bi
[Профиль]  [ЛС] 

lis777

Корсар

Пост 05-Фев-2012 00:19 (спустя 5 дней)

[Q] 

[Профиль]  [ЛС] 

lis777

Корсар

Пост 05-Фев-2012 00:36 (спустя 17 минут)

[Q] 

[Профиль]  [ЛС] 

sexy911

Шкипер

1

Пост 05-Фев-2012 19:13 (спустя 18 часов)

[Q] 

Толковый фильм,хоть и с телика,ещё раз повествует о том что в нашей жизни нужно доверять только себе.

_________________
Подпись отключена за нарушение правил форума
[Профиль]  [ЛС] 

anonymoys

Гроза морей

901

Пост 10-Фев-2012 12:38 (спустя 4 дня)

[Q] 

отличный фильмец
[Профиль]  [ЛС] 
Показать сообщения:    
Ответить на тему

Текущее время: Сегодня 23:20

Часовой пояс: GMT + 4



Вы не можете начинать темы
Вы не можете отвечать на сообщения
Вы не можете редактировать свои сообщения
Вы не можете удалять свои сообщения
Вы не можете голосовать в опросах
Вы не можете прикреплять файлы к сообщениям
Вы не можете скачивать файлы

▼ Вниз