ML
     
  Уважаемый Гость!
Вы можете поддержать проект и зарегистрироваться у наших партнеров - онлайн-стратегия MyLands. При регистрации в игре Вы получите код, который сможете активировать после регистрации на pirat.ca и получить 1000 дублонов.

Ваш код:
ef8b3e8cd07bec918273586d22e5aaf18e0ae925
 
     

Война полов (Кирилл Кузин) [2015 г., комедия, WEB-DLRip] Original (RUS)[iTunes]

Ответить на тему
 
Автор
Сообщение

Пост 22-Ноя-2015 10:00

[Q] 

aleksey99

--Война полов--«Мужики! Не расслабляйтесь!»-- Производство: Россия, Группа компаний «Рим»
Год выпуска: 2015 г.
Жанр: комедия
Продолжительность: 01:26:11--Российская премьера: 22 октября 2015, «Каро-Премьер»--Режиссер: Кирилл Кузин--В ролях: Харальд Розенстрём, Александр Пальчиков, Екатерина Кузнецова, Сабина Ахмедова, Алексей Демидов, Марина Федункив, Анатолий Белый, Борис Эстрин, Артём Семакин--Описание: Что завтра на рассвете с каждым из нас случится, не знает никто. И когда ТРИ наших героя проснулись на необитаемом острове, в компании ДВУХ красивых… но не очень дружелюбных девушек… да еще без воды и еды… Вот тут они и поняли, что жизнь действительно полна сюрпризов!-- --Качество видео: WEB-DLRip
Контейнер: AVI
Видео кодек: XviD
Аудио кодек: AC3
Видео: 720x304 (2.37:1), 25 fps, XviD build 50 ~1875 kbps avg, 0.34 bit/pixel
Аудио: 48 kHz, AC3 Dolby Digital, 3/2 (L,C,R,l,r) + LFE ch, ~384 kbps
Cубтитры: отсутствуют
Общее
Полное имя : H:\Torrent2\V0iNa.P0loV.2015.O.WEB-DLRip.avi
Формат : AVI
Формат/Информация : Audio Video Interleave
Размер файла : 1,37 Гбайт
Продолжительность : 1 ч. 26 м.
Общий поток : 2270 Кбит/сек
Программа кодирования : VirtualDubMod 1.5.10.3 | www.virtualdub-fr.org || (build 2550/release)
Библиотека кодирования : VirtualDubMod build 2550/release
Видео
Идентификатор : 0
Формат : MPEG-4 Visual
Профиль формата : Advanced [email protected]
Параметр BVOP формата : 2
Параметр QPel формата : Нет
Параметр GMC формата : Без точки перехода
Параметр матрицы формата : Default (MPEG)
Идентификатор кодека : XVID
Идентификатор кодека/Подсказка : XviD
Продолжительность : 1 ч. 26 м.
Битрейт : 1876 Кбит/сек
Ширина : 720 пикселей
Высота : 304 пикселя
Соотношение сторон : 2,35:1
Частота кадров : 25,000 кадров/сек
Цветовое пространство : YUV
Субдискретизация насыщенности : 4:2:0
Битовая глубина : 8 бит
Тип развёртки : Прогрессивная
Метод сжатия : С потерями
Бит/(Пиксели*Кадры) : 0.343
Размер потока : 1,13 Гбайт (83%)
Библиотека кодирования : XviD 1.2.1 (UTC 2008-12-04)
Аудио
Идентификатор : 1
Формат : AC-3
Формат/Информация : Audio Coding 3
Расширение режима : CM (complete main)
Параметр Endianness формата : Big
Идентификатор кодека : 2000
Продолжительность : 1 ч. 26 м.
Вид битрейта : Постоянный
Битрейт : 384 Кбит/сек
Каналы : 6 каналов
Расположение каналов : Front: L C R, Side: L R, LFE
Частота : 48,0 КГц
Метод сжатия : С потерями
Размер потока : 237 Мбайт (17%)
Выравнивание : Разделение по промежуткам
Продолжительность промежутка : 40 мс. (1,00 видеокадр)
Время предзагрузки промежутка : 500 мс.
Трейлер
Download / Скачать

Хотите скачать бесплатно? Зарегистрируйтесь на сайте (ссылка на регистрацию). Pirat.ca - самый быстрый торрент трекер в рунете!

Как скачивать  ·   Что такое торрент  ·   Рейтинг и ограничения

platon18

Гроза морей

Пост 22-Ноя-2015 12:02 (спустя 2 часа 2 минуты)

[Q] 

бабы не очень
[Профиль]  [ЛС] 

Ambeg

Корсар

Пост 22-Ноя-2015 15:13 (спустя 3 часа)

[Q] 

КАК фильм, а не бабы ?
[Профиль]  [ЛС] 

hotabych_ru32

Юнга

Пост 22-Ноя-2015 18:11 (спустя 2 часа 57 минут)

[Q] 

и фильм тоже не особо до конца не хватило сил
[Профиль]  [ЛС] 

Alingva

Гроза морей

18

Пост 22-Ноя-2015 23:39 (спустя 5 часов)

[Q] 

Спасибо, глянем-с!!! az

_________________
Если Вам кажется что у Вас нимб над головой, то не обращайте на него внимание - это просто мания величия!
[Профиль]  [ЛС] 

Bassmuch

Шкипер

Пост 23-Ноя-2015 00:14 (спустя 34 минуты)

[Q] 

Ремейк на 3+2 что ль? bn
[Профиль]  [ЛС] 

Eugenius

Корсар

661

Пост 23-Ноя-2015 01:52 (спустя 1 час 37 минут)

[Q] 

Золотой ФОНД КИНА финансировал!!!!
Унитаз Хранилище еврапЭйских ценностей!!
Трафик потрачен зря!
А ещё "Левиафан" хаютт....

_________________
Используйте шифрование для пирингового обмена:
uTorrent > Настройки > BitTorrent >> Шифрование протокола >> "Принудительно" (+ Принимать нешифрованые)
[Профиль]  [ЛС] 

cumberlady

Морской Волк

Пост 28-Ноя-2015 14:15 (спустя 5 дней)

[Q] 

Спасибо, но Отказать
[Профиль]  [ЛС] 

янка-сан

Гроза морей

Пост 19-Дек-2015 04:18 (спустя 20 дней)

[Q] 

совсем плох?...
[Профиль]  [ЛС] 

Пост 22-Дек-2015 21:07 (спустя 3 дня)

Топик был перенесен из форума Новинки (HD|DVD|BD| TV|SAT|PDTV| - Rips) в форум Российские фильмы
aleksey99
 

lexaspirit

Пост 04-Апр-2016 10:45 (спустя 3 месяца 16 дней)

[Q] 

Напомнило 3 + 2. Вечерком посмотреть можно

_________________
-------------------- ----------------------
[Профиль]  [ЛС] 
Показать сообщения:    
Ответить на тему

Текущее время: Сегодня 18:38

Часовой пояс: GMT + 4



Вы не можете начинать темы
Вы не можете отвечать на сообщения
Вы не можете редактировать свои сообщения
Вы не можете удалять свои сообщения
Вы не можете голосовать в опросах
Вы не можете прикреплять файлы к сообщениям
Вы не можете скачивать файлы

▼ Вниз