ML
     
  Уважаемый Гость!
Вы можете поддержать проект и зарегистрироваться у наших партнеров - онлайн-стратегия MyLands. При регистрации в игре Вы получите код, который сможете активировать после регистрации на pirat.ca и получить 1000 дублонов.

Ваш код:
59354507ba913a0948d1a8f2e30f2e04c4cd7b9b
 
     

Без границ (Карен Оганесян, Резо Гигинеишвили, Роман Прыгунов) [2015 г., комедия, мелодрама, WEB-DLRip] Original (RUS)[iTunes]

Ответить на тему
 
Автор
Сообщение

Пост 26-Ноя-2015 07:46

[Q] 

aleksey99

--Без границ--«Между народная комедия»-- Производство: Россия, Фонд кино, Кинокомпания "Небо"
Год выпуска: 2015 г.
Жанр: комедия, мелодрама
Продолжительность: 01:36:02--Мировая премьера: 22 октября 2015
Российская премьера: 22 октября 2015, «WDSSPR»--Режиссер: Карен Оганесян, Резо Гигинеишвили, Роман Прыгунов--В ролях: Инна Чурикова, Олег Басилашвили, Александр Адабашьян, Анна Чиповская, Иван Янковский, Александр Паль, Милош Бикович, Мария Шалаева, Равшана Куркова, Наталия Вдовина--Описание: События картины начинаются в московском аэропорту, откуда главные герои отправляются в захватывающие путешествия к живописным горным долинам Армении, утопающим в зелени улочкам Тбилиси и праздничным огням новогодней Москвы навстречу любви — яркой и страстной, наивной и нелепой, трогательной и грустной, счастливой и безрассудной, которая не знает границ и условностей, возраста и национальностей.-- --Качество видео: WEB-DLRip
Контейнер: AVI
Видео кодек: XviD
Аудио кодек: AC3
Видео: 720x304 (2.37:1), 24 fps, XviD build 50 ~1782 kbps avg, 0.34 bit/pixel
Аудио: 48 kHz, AC3 Dolby Digital, 3/2 (L,C,R,l,r) + LFE ch, ~384 kbps
Cубтитры: отсутствуют
Общее
Полное имя : D:\Torrent 2\6e3.Gp4Hyc.2015.O.WEB-DLRip.avi
Формат : AVI
Формат/Информация : Audio Video Interleave
Размер файла : 1,46 Гбайт
Продолжительность : 1 ч. 36 м.
Общий поток : 2176 Кбит/сек
Программа кодирования : VirtualDubMod 1.5.10.3 | www.virtualdub-fr.org || (build 2550/release)
Библиотека кодирования : VirtualDubMod build 2550/release
Видео
Идентификатор : 0
Формат : MPEG-4 Visual
Профиль формата : Advanced [email protected]
Параметр BVOP формата : 2
Параметр QPel формата : Нет
Параметр GMC формата : Без точки перехода
Параметр матрицы формата : Default (MPEG)
Идентификатор кодека : XVID
Идентификатор кодека/Подсказка : XviD
Продолжительность : 1 ч. 36 м.
Битрейт : 1783 Кбит/сек
Ширина : 720 пикселей
Высота : 304 пикселя
Соотношение сторон : 2,35:1
Частота кадров : 24,000 кадра/сек
Цветовое пространство : YUV
Субдискретизация насыщенности : 4:2:0
Битовая глубина : 8 бит
Тип развёртки : Прогрессивная
Метод сжатия : С потерями
Бит/(Пиксели*Кадры) : 0.339
Размер потока : 1,20 Гбайт (82%)
Библиотека кодирования : XviD 1.2.1 (UTC 2008-12-04)
Аудио
Идентификатор : 1
Формат : AC-3
Формат/Информация : Audio Coding 3
Расширение режима : CM (complete main)
Параметр Endianness формата : Big
Идентификатор кодека : 2000
Продолжительность : 1 ч. 36 м.
Вид битрейта : Постоянный
Битрейт : 384 Кбит/сек
Каналы : 6 каналов
Расположение каналов : Front: L C R, Side: L R, LFE
Частота : 48,0 КГц
Метод сжатия : С потерями
Размер потока : 264 Мбайт (18%)
Выравнивание : Разделение по промежуткам
Продолжительность промежутка : 42 мс. (1,00 видеокадр)
Время предзагрузки промежутка : 500 мс.
Трейлер
Download / Скачать

Хотите скачать бесплатно? Зарегистрируйтесь на сайте (ссылка на регистрацию). Pirat.ca - самый быстрый торрент трекер в рунете!

Как скачивать  ·   Что такое торрент  ·   Рейтинг и ограничения

Мишки

Морской Волк

Пост 26-Ноя-2015 16:02 (спустя 8 часов)

[Q] 

О, парень с нашего кладбища. Попробую посмотреть.

_________________
Это всего лишь игра, настройся на волну позитива!:)
[Профиль]  [ЛС] 

salavat1234

Гроза морей

Пост 26-Ноя-2015 18:03 (спустя 2 часа)

[Q] 

Судя по трейлеру очередной шедевр наших гуру. Автору респект!!! Трафик потрачен зря!
[Профиль]  [ЛС] 

Jek@

Легенда

Пост 27-Ноя-2015 15:19 (спустя 21 час)

[Q] 

Спасибо!!! .
[Профиль]  [ЛС] 

alex198408

Морской Волк

Пост 28-Ноя-2015 01:32 (спустя 10 часов)

[Q] 

глянуть можно разок)))) Автору респект!!!
[Профиль]  [ЛС] 

my1979

Корсар

Пост 28-Ноя-2015 14:16 (спустя 12 часов)

[Q] 

да, приятный легкий фильм, без негатива
спасибо
[Профиль]  [ЛС] 

cumberlady

Морской Волк

Пост 28-Ноя-2015 14:19 (спустя 2 минуты)

[Q] 

На один раз.. Лови бочку
[Профиль]  [ЛС] 

polimorf

Лоцман

Пост 29-Ноя-2015 09:53 (спустя 19 часов)

[Q] 

718539Судя по трейлеру очередной шедевр наших гуру. Автору респект!!! Трафик потрачен зря!
Я и не знал, что есть места где еще считают трафик)))))
Добавлено спустя 1 минута 30 секунд:
фильм на разок, такая легенькая комедия.
[Профиль]  [ЛС] 

italiano711

Гроза морей

Пост 29-Ноя-2015 13:27 (спустя 3 часа)

[Q] 

Ну на один раз, так на один...
[Профиль]  [ЛС] 

Vkach

Корсар

Пост 29-Ноя-2015 14:32 (спустя 1 час 5 минут)

[Q] 

спасибо. заценим.
[Профиль]  [ЛС] 

Relax

Морской Волк

Пост 29-Ноя-2015 14:38 (спустя 6 минут)

[Q] 

Спасибо! Заценю Лови бочку
[Профиль]  [ЛС] 

activ1

Корсар

Пост 30-Ноя-2015 00:24 (спустя 9 часов)

[Q] 

Спасибо!!! Понравился Лови бочку
[Профиль]  [ЛС] 

Ryzhoff

Штурман

Пост 01-Дек-2015 14:49 (спустя 1 день 14 часов)

[Q] 

Посмотрим Лови бочку
[Профиль]  [ЛС] 

damhsn

Штурман

Пост 01-Дек-2015 21:31 (спустя 6 часов)

[Q] 

Не понравился На любителя
[Профиль]  [ЛС] 

Barskavkaz

Корсар

Пост 03-Дек-2015 01:52 (спустя 1 день 4 часа)

[Q] 

Нормальный фильм, были моменты где посмеяться, вечерок скоротал) всем доволен) Автору респект!!! Лови бочку

_________________
Д.Тк
[Профиль]  [ЛС] 

serge_023

Шкипер

Пост 03-Дек-2015 06:06 (спустя 4 часа)

[Q] 

Доброе кино, спасибо!
Ужели наш синематограф исправляется?!
Лови бочку
[Профиль]  [ЛС] 

Пост 26-Дек-2015 10:34 (спустя 23 дня)

Топик был перенесен из форума Новинки (HD|DVD|BD| TV|SAT|PDTV| - Rips) в форум Российские фильмы
aleksey99
 

realyu

Корсар

Пост 02-Янв-2016 04:22 (спустя 29 дней)

[Q] 

Банальнейшая сказочка о том, что всё будет хорошо, все будут счастливы, чудеса случаются, бла-бла-бла: красочно, но бессмысленно. Фильм через пять минут вылетит из головы, его предназначение - быть фоном или убить время, но и не засыпая. Из плюсов - шутки не очень смешные, но добрые, не пошлые. Смотрибельно, позитивненько.
[Профиль]  [ЛС] 

grosboy

Флибустьер

Пост 14-Янв-2016 12:08 (спустя 12 дней)

[Q] 

Отличный позитивный фильм. Смотрится легко. Есть много смешных моментов. И счастливый конец, что самое главное.

_________________
Щастье есть - его не может не быть...
[Профиль]  [ЛС] 

Daemon_BS

Штурман

Пост 25-Фев-2016 14:51 (спустя 1 месяц 11 дней)

[Q] 

сценарий: короткие рассказы объединённые общей темой - тенденция нашего современного кинематографа. ХЗ!!! На любителя
[Профиль]  [ЛС] 
Показать сообщения:    
Ответить на тему

Текущее время: Сегодня 16:10

Часовой пояс: GMT + 4



Вы не можете начинать темы
Вы не можете отвечать на сообщения
Вы не можете редактировать свои сообщения
Вы не можете удалять свои сообщения
Вы не можете голосовать в опросах
Вы не можете прикреплять файлы к сообщениям
Вы не можете скачивать файлы

▼ Вниз