ML
     
  Уважаемый Гость!
Вы можете поддержать проект и зарегистрироваться у наших партнеров - онлайн-стратегия MyLands. При регистрации в игре Вы получите код, который сможете активировать после регистрации на pirat.ca и получить 1000 дублонов.

Ваш код:
dbd0d701284cde74a1f34d06ce20b7bc75a73e75
 
     

Новые русские (Камила Сафина, Григорий Добрыгин, Оксана Михеева, Кирилл Плетнёв, Жора Крыжовников) [2015 г., комедия, триллер, фантастика, драма, WEB-DLRip] Original (RUS)[iTunes]

Ответить на тему
 
Автор
Сообщение

Пост 28-Ноя-2015 20:12

[Q] 

aleksey99

--Новые русские-- Производство: Россия / Лук-фильм, Метрафильмс
Год выпуска: 2015 г.
Жанр: комедия, триллер, фантастика, драма
Продолжительность: 01:29:10--Российская премьера: 4 июня 2015, «Utopia Pictures»--Режиссер: Камила Сафина, Григорий Добрыгин, Оксана Михеева, Кирилл Плетнёв, Жора Крыжовников--В ролях: Виктор Сухоруков, Фандус Гаптуллин, Владимир Любовский, Максим Бартош, Елена Сердюкова, Сергей Маковецкий, Джордже Пистерьяну, Бернардо Арриас Поррас, Александр Яценко, Екатерина Щеглова--Описание: Коллекция короткометражных фильмов. Все шесть работ сделаны молодыми российскими режиссерами, все отличает та свобода, которую редко встретишь в большом отечественном кино. Молодежь не зависит от финансового диктата, ей плевать на цензурные запреты, она смела в обращении с жанрами и не стесняется нарушать любые правила.-- --Качество видео: WEB-DLRip
Контейнер: AVI
Видео кодек: XviD
Аудио кодек: AC3
Видео: 720x400 (1.80:1), 24 fps, XviD build 50 ~1991 kbps avg, 0.29 bit/pixel
Аудио: 48 kHz, AC3 Dolby Digital, 2/0 (L,R) ch, ~192 kbps
Cубтитры: отсутствуют
Общее
Полное имя : H:\Torrent2\H0Bye.PyCCk1e.2015.O.WEB-DLRip.avi
Формат : AVI
Формат/Информация : Audio Video Interleave
Размер файла : 1,37 Гбайт
Продолжительность : 1 ч. 29 м.
Общий поток : 2193 Кбит/сек
Программа кодирования : VirtualDubMod 1.5.10.3 | www.virtualdub-fr.org || (build 2550/release)
Библиотека кодирования : VirtualDubMod build 2550/release
Видео
Идентификатор : 0
Формат : MPEG-4 Visual
Профиль формата : Advanced [email protected]
Параметр BVOP формата : 2
Параметр QPel формата : Нет
Параметр GMC формата : Без точки перехода
Параметр матрицы формата : Default (MPEG)
Идентификатор кодека : XVID
Идентификатор кодека/Подсказка : XviD
Продолжительность : 1 ч. 29 м.
Битрейт : 1992 Кбит/сек
Ширина : 720 пикселей
Высота : 400 пикселей
Соотношение сторон : 16:9
Частота кадров : 24,000 кадра/сек
Цветовое пространство : YUV
Субдискретизация насыщенности : 4:2:0
Битовая глубина : 8 бит
Тип развёртки : Прогрессивная
Метод сжатия : С потерями
Бит/(Пиксели*Кадры) : 0.288
Размер потока : 1,24 Гбайт (91%)
Библиотека кодирования : XviD 1.2.1 (UTC 2008-12-04)
Аудио
Идентификатор : 1
Формат : AC-3
Формат/Информация : Audio Coding 3
Расширение режима : CM (complete main)
Параметр Endianness формата : Big
Идентификатор кодека : 2000
Продолжительность : 1 ч. 29 м.
Вид битрейта : Постоянный
Битрейт : 192 Кбит/сек
Каналы : 2 канала
Расположение каналов : Front: L R
Частота : 48,0 КГц
Метод сжатия : С потерями
Размер потока : 122 Мбайт (9%)
Выравнивание : Разделение по промежуткам
Продолжительность промежутка : 42 мс. (1,00 видеокадр)
Время предзагрузки промежутка : 500 мс.
Трейлер
Download / Скачать

Хотите скачать бесплатно? Зарегистрируйтесь на сайте (ссылка на регистрацию). Pirat.ca - самый быстрый торрент трекер в рунете!

Как скачивать  ·   Что такое торрент  ·   Рейтинг и ограничения

Дядя Витя

53892

Пост 28-Ноя-2015 21:29 (спустя 1 час 16 минут)

[Q] 

aleksey99, качну) Позже отпишусь)
Раздающему респект!

_________________
?
[Профиль]  [ЛС] 

Egosha125

Лоцман

Пост 29-Ноя-2015 13:08 (спустя 15 часов)

[Q] 

УГ. Ели досмотрел второй сюжет. Продюсерам и режиссерам руки оторвать.
[Профиль]  [ЛС] 

viktor41

Шкипер

Пост 29-Ноя-2015 14:14 (спустя 1 час 5 минут)

[Q] 

Спасибо! Автору респект!!!
[Профиль]  [ЛС] 

eugenea49

Морской Волк

Пост 29-Ноя-2015 15:30 (спустя 1 час 16 минут)

[Q] 

Первый и последний сюжеты - bj
Всем качать!!! (кроме школоты)
[Профиль]  [ЛС] 

Grizlitlt

Лоцман

Пост 29-Ноя-2015 19:02 (спустя 3 часа)

[Q] 

странно на обложке Александр Паль в ролях, а в описании нету?
[Профиль]  [ЛС] 

Marauder1

Шкипер

Пост 01-Дек-2015 23:58 (спустя 2 дня 4 часа)

[Q] 

Бывало и хуже
[Профиль]  [ЛС] 

cumberlady

Морской Волк

Пост 05-Дек-2015 22:07 (спустя 3 дня)

[Q] 

Очень необычно, местами откровенный трэш, но вселяет надежду...) !COOL! На любителя
[Профиль]  [ЛС] 
Показать сообщения:    
Ответить на тему

Текущее время: Сегодня 18:30

Часовой пояс: GMT + 4



Вы не можете начинать темы
Вы не можете отвечать на сообщения
Вы не можете редактировать свои сообщения
Вы не можете удалять свои сообщения
Вы не можете голосовать в опросах
Вы не можете прикреплять файлы к сообщениям
Вы не можете скачивать файлы

▼ Вниз