ML
     
  Уважаемый Гость!
Вы можете поддержать проект и зарегистрироваться у наших партнеров - онлайн-стратегия MyLands. При регистрации в игре Вы получите код, который сможете активировать после регистрации на pirat.ca и получить 1000 дублонов.

Ваш код:
2fd4e750dd89cae3a36ea360f2b345ccfeb562d3
 
     

Дороги (Андрей Гаврилов) [2015 г., драма, криминал, WEBRip] Original (RUS)

Ответить на тему
 
Автор
Сообщение

Пост 02-Дек-2015 19:45

[Q] 

aleksey99

--Дороги--«Не важно на чем ты ездишь... главное как ты двигаешься и кому с тобой по пути!»-- Производство: Россия, Мечта
Год выпуска: 2015 г.
Жанр: драма, криминал
Продолжительность: 01:34:48--Российская премьера: 3 декабря 2015, «Мечта»--Режиссер: Андрей Гаврилов--В ролях: Иван Шаповалов, Владимир Заболотский, Константин Авдеев, Сергей Гореликов, Владимир Сычёв, Марина Федункив, Максим Коновалов, Артем Карокозян, Артем Калайджян--Описание: Фильм о дорогах, как об автомобильных так и о жизненных, а еще о друзьях, которые друг другу дороги! Руся, Саня и Макс дружат с детства, но силой обстоятельств их дороги расходятся. Через несколько лет они встречаются и решают зарабатывать не честным путем. Почувствовав вкус денег, Руся пристрастился к наркотикам, Саня как и мечтал открыл спорт зал, а Макс увлечен своей девушкой и планирует создать семью. Однако дорога за легкими деньгами их затягивает и приводит совсем не туда куда они мечтали.-- --Качество видео: WEBRip
Контейнер: AVI
Видео кодек: XviD
Аудио кодек: AC3
Видео: 704x320 (2.20:1), 25 fps, XviD build 73 ~1348 kbps avg, 0.24 bit/pixel
Аудио: 48 kHz, AC3 Dolby Digital, 2/0 (L,R) ch, ~192 kbps
Cубтитры: отсутствуют
Общее
Полное имя : H:\Torrent2\Dorogi.2015.O.WEBRip.avi
Формат : AVI
Формат/Информация : Audio Video Interleave
Размер файла : 1,03 Гбайт
Продолжительность : 1 ч. 34 м.
Общий поток : 1550 Кбит/сек
Программа кодирования : VirtualDubMod 1.5.10.3 | www.virtualdub-fr.org || (build 2550/release)
Библиотека кодирования : VirtualDubMod build 2550/release
Видео
Идентификатор : 0
Формат : MPEG-4 Visual
Профиль формата : Advanced [email protected]
Параметр BVOP формата : 1
Параметр QPel формата : Нет
Параметр GMC формата : Без точки перехода
Параметр матрицы формата : Выборочная
Идентификатор кодека : XVID
Идентификатор кодека/Подсказка : XviD
Продолжительность : 1 ч. 34 м.
Битрейт : 1348 Кбит/сек
Ширина : 704 пикселя
Высота : 320 пикселей
Соотношение сторон : 2,2:1
Частота кадров : 25,000 кадров/сек
Цветовое пространство : YUV
Субдискретизация насыщенности : 4:2:0
Битовая глубина : 8 бит
Тип развёртки : Прогрессивная
Метод сжатия : С потерями
Бит/(Пиксели*Кадры) : 0.239
Размер потока : 914 Мбайт (87%)
Библиотека кодирования : XviD 73
Аудио
Идентификатор : 1
Формат : AC-3
Формат/Информация : Audio Coding 3
Расширение режима : CM (complete main)
Параметр Endianness формата : Big
Идентификатор кодека : 2000
Продолжительность : 1 ч. 34 м.
Вид битрейта : Постоянный
Битрейт : 192 Кбит/сек
Каналы : 2 канала
Расположение каналов : Front: L R
Частота : 48,0 КГц
Метод сжатия : С потерями
Размер потока : 130 Мбайт (12%)
Выравнивание : Разделение по промежуткам
Продолжительность промежутка : 40 мс. (1,00 видеокадр)
Время предзагрузки промежутка : 500 мс.
Трейлер
Download / Скачать

Хотите скачать бесплатно? Зарегистрируйтесь на сайте (ссылка на регистрацию). Pirat.ca - самый быстрый торрент трекер в рунете!

Как скачивать  ·   Что такое торрент  ·   Рейтинг и ограничения

krendel1973

Флибустьер

Пост 02-Дек-2015 22:36 (спустя 2 часа 50 минут)

[Q] 

Спасибо!!! Лови бочку
[Профиль]  [ЛС] 

rsel

Морской Волк

Пост 02-Дек-2015 23:18 (спустя 42 минуты)

[Q] 

ну чё, как оно?
[Профиль]  [ЛС] 

Scull666

Шкипер

Пост 03-Дек-2015 00:15 (спустя 57 минут)

[Q] 

ну чё, как оно?
редкостное говнище, еле посмотрел данный шедевр в режиме перемотки, пытаясь найти хоть что-то положительное..но увы...
набор каких-то говенных стереотипов выдают за сюжет... игра актерская на уровне дна... режиссура уровня съемок школотой на мобилку...и в довершении ко всему все говорят с быдлятским акцентом
Не качайте!
[Профиль]  [ЛС] 

smartpeople

Шкипер

Пост 03-Дек-2015 11:39 (спустя 11 часов)

[Q] 

негоните...фильм ниче так...бумер на новый лад.ставлю 6 из 10
[Профиль]  [ЛС] 

Scull666

Шкипер

Пост 03-Дек-2015 13:45 (спустя 2 часа 6 минут)

[Q] 

бумер на новый лад.
спасибо, поржал
[Профиль]  [ЛС] 

zmaksimz

Корсар

Пост 03-Дек-2015 15:54 (спустя 2 часа 8 минут)

[Q] 

Так себе. На один раз.
[Профиль]  [ЛС] 

alex11959

Флибустьер

Пост 03-Дек-2015 16:38 (спустя 44 минуты)

[Q] 

Спасибо!!! !!!!!!!!!!!!!!!!!!!!!!!!
[Профиль]  [ЛС] 

Slavkovich_

Пост 03-Дек-2015 23:04 (спустя 6 часов)

[Q] 

раз, раз, раз, раз....фильм наверно дикобраз
судя по мордам на кассетнике....и по отзывам окружающих,
потрачу время
[Профиль]  [ЛС] 

MaXoR

Флибустьер

1470

Пост 08-Дек-2015 12:35 (спустя 4 дня)

[Q] 

Боооже мой, не могу не высказаться. Какой же это БРЕД. Scull666 верно все сказал, но хочется добавить.
Техническая составляющая: звук уг, операторская работа оставляет желать лучшего, недоклипмейкер снимал все это дело, монтаж вообще ппц, только начинаешь вникать в сюжетную какую-то линию тебя сразу бросает на отрывок про другого чувака. И проблемы на монтаже вытекают, естественно, в проблемы сюжета: нет четкой линии, бессмысленные обрубки видео нам приходится наблюдать на протяжении всего фильма.
Про стереотипы в точку - клише на клише сидит и клише погоняет в этом фильме про новых "четких пацаСОнов". Тут тебе и армия и зона и ГИБДД, а также тупость персонажей и общая неправдаподобность происходящего. То одного без адвоката допрашивают, судят по 108, а потом начальник зоны сам документы на освобождение подает, то девка с моста хочет прыгать, но потом вешается на шею отцу с криками "прости". Про армию вообще не понятно зачем показали, тупо чел живет и ничего интересного не происходит. Дальше продолжать смысла нет - подобный бред. Фильм - хороший объект для Бэдкомедиан обзора, я считаю.
Клишеровано, бредово, быдловато. Отказать Трафик потрачен зря!

_________________
Живы будем - не помрем!
[Профиль]  [ЛС] 

Vkach

Корсар

Пост 10-Дек-2015 09:48 (спустя 1 день 21 час)

[Q] 

Спасибо. Качаю.
[Профиль]  [ЛС] 

rampage-2

Шкипер

Пост 12-Дек-2015 22:05 (спустя 2 дня 12 часов)

[Q] 

На один раз под пивко, максимум, 10 летним блатным романтикам понравится. 3,5 из 10.
Добавлено спустя 9 минут 11 секунд:
Сегодня зашел на Кинопоиск посмотреть оценку данного фильма и просто охренел, оценка 6,5. Я не пойму это создатели этого "шедевра" ему оценку выставили или школьники понабежали оценивать фильм. ca
[Профиль]  [ЛС] 

KoNiaL_KCC

Гроза морей

Пост 13-Дек-2015 15:28 (спустя 17 часов)

[Q] 

MaXoR, согласен, походу чья то дипломная работа bp бред полнейший. Отказать
[Профиль]  [ЛС] 

Bos_Man

Штурман

Пост 13-Дек-2015 16:34 (спустя 1 час 6 минут)

[Q] 

подскажите как качать. нажимаю на скачать а меня отправляет на страницу что сайт заблокирован
[Профиль]  [ЛС] 

Skat.56

Гроза морей

448

Пост 14-Дек-2015 00:55 (спустя 8 часов)

[Q] 

Тема сисек не раскрыта

рядом с бригадой или даже бумером рядом не пробегало. Короче уныло
[Профиль]  [ЛС] 

Пост 07-Янв-2016 11:53 (спустя 24 дня)

Топик был перенесен из форума Новинки (HD|DVD|BD| TV|SAT|PDTV| - Rips) в форум Российские фильмы
aleksey99
 
Показать сообщения:    
Ответить на тему

Текущее время: Сегодня 14:12

Часовой пояс: GMT + 4



Вы не можете начинать темы
Вы не можете отвечать на сообщения
Вы не можете редактировать свои сообщения
Вы не можете удалять свои сообщения
Вы не можете голосовать в опросах
Вы не можете прикреплять файлы к сообщениям
Вы не можете скачивать файлы

▼ Вниз