ML
     
  Уважаемый Гость!
Вы можете поддержать проект и зарегистрироваться у наших партнеров - онлайн-стратегия MyLands. При регистрации в игре Вы получите код, который сможете активировать после регистрации на pirat.ca и получить 1000 дублонов.

Ваш код:
4855957e17f50c5c1236a0f8c4492b2b0bba00a0
 
     

Дедушка моей мечты (Александр Стриженов) [2014 г., комедия, семейный, WEB-DLRip] Original (RUS)[iTunes]

Ответить на тему
 
Автор
Сообщение

Пост 03-Дек-2015 20:49

[Q] 

aleksey99

--Дедушка моей мечты-- Производство: Россия, Кинокомпания "Пендулум"
Год выпуска: 2014 г.
Жанр: комедия, семейный
Продолжительность: 01:41:53--Российская премьера: 16 июля 2015, «Каропрокат»--Режиссер: Александр Стриженов--В ролях: Николай Добрынин, Екатерина Стриженова, Леонид Якубович, Анна Ардова, Виктор Супрун, Виталий Хаев, Иван Кокорин, Александр Добровинский, Александр Пряников, Грант Палагаев--Описание: Гротесковая семейная комедия, поднимающая извечный вопрос о том, насколько мы зависим от материального благополучия, которое внезапно обрушивается на нашу голову.-- --Качество видео: WEB-DLRip
Контейнер: AVI
Видео кодек: XviD
Аудио кодек: AC3
Видео: 720x304 (2.37:1), 24 fps, XviD build 50 ~1659 kbps avg, 0.32 bit/pixel
Аудио: 48 kHz, AC3 Dolby Digital, 3/2 (L,C,R,l,r) + LFE ch, ~384 kbps
Cубтитры: отсутствуют
Общее
Полное имя : H:\Torrent2\DeBywk4.M0ey.Me4t1.2015.O.WEB-DLRip.1.46GB.avi
Формат : AVI
Формат/Информация : Audio Video Interleave
Размер файла : 1,46 Гбайт
Продолжительность : 1 ч. 41 м.
Общий поток : 2053 Кбит/сек
Программа кодирования : VirtualDubMod 1.5.10.3 | www.virtualdub-fr.org || (build 2550/release)
Библиотека кодирования : VirtualDubMod build 2550/release
Видео
Идентификатор : 0
Формат : MPEG-4 Visual
Профиль формата : Advanced [email protected]
Параметр BVOP формата : 2
Параметр QPel формата : Нет
Параметр GMC формата : Без точки перехода
Параметр матрицы формата : Default (MPEG)
Идентификатор кодека : XVID
Идентификатор кодека/Подсказка : XviD
Продолжительность : 1 ч. 41 м.
Битрейт : 1660 Кбит/сек
Ширина : 720 пикселей
Высота : 304 пикселя
Соотношение сторон : 2,35:1
Частота кадров : 24,000 кадра/сек
Цветовое пространство : YUV
Субдискретизация насыщенности : 4:2:0
Битовая глубина : 8 бит
Тип развёртки : Прогрессивная
Метод сжатия : С потерями
Бит/(Пиксели*Кадры) : 0.316
Размер потока : 1,18 Гбайт (81%)
Библиотека кодирования : XviD 1.2.1 (UTC 2008-12-04)
Аудио
Идентификатор : 1
Формат : AC-3
Формат/Информация : Audio Coding 3
Расширение режима : CM (complete main)
Параметр Endianness формата : Big
Идентификатор кодека : 2000
Продолжительность : 1 ч. 41 м.
Вид битрейта : Постоянный
Битрейт : 384 Кбит/сек
Каналы : 6 каналов
Расположение каналов : Front: L C R, Side: L R, LFE
Частота : 48,0 КГц
Метод сжатия : С потерями
Размер потока : 280 Мбайт (19%)
Выравнивание : Разделение по промежуткам
Продолжительность промежутка : 42 мс. (1,00 видеокадр)
Время предзагрузки промежутка : 500 мс.
Трейлер
Download / Скачать

Хотите скачать бесплатно? Зарегистрируйтесь на сайте (ссылка на регистрацию). Pirat.ca - самый быстрый торрент трекер в рунете!

Как скачивать  ·   Что такое торрент  ·   Рейтинг и ограничения

DellFlyer

Флибустьер

165

Пост 04-Дек-2015 17:13 (спустя 20 часов)

[Q] 

Есть несколько смешных моментов, а в остальном полный шлак, как и большинство российских фильмов! Дедушка и кашка, это же надо было такое придумать, видимо трава, которую курил режиссёр, была хорошего качества)))
На любителя
[Профиль]  [ЛС] 

maxiknik40

Корсар

Пост 09-Дек-2015 23:33 (спустя 5 дней)

[Q] 

Спасибки Спасибо!!!
[Профиль]  [ЛС] 

robb71

Морской Волк

Пост 20-Дек-2015 09:22 (спустя 10 дней)

[Q] 

спасибо качну
[Профиль]  [ЛС] 

KoNiaL_KCC

Гроза морей

Пост 20-Дек-2015 13:52 (спустя 4 часа)

[Q] 

спасибо. набор актеров радует, посмотрю
[Профиль]  [ЛС] 
Показать сообщения:    
Ответить на тему

Текущее время: Сегодня 06:16

Часовой пояс: GMT + 4



Вы не можете начинать темы
Вы не можете отвечать на сообщения
Вы не можете редактировать свои сообщения
Вы не можете удалять свои сообщения
Вы не можете голосовать в опросах
Вы не можете прикреплять файлы к сообщениям
Вы не можете скачивать файлы

▼ Вниз