ML
     
  Уважаемый Гость!
Вы можете поддержать проект и зарегистрироваться у наших партнеров - онлайн-стратегия MyLands. При регистрации в игре Вы получите код, который сможете активировать после регистрации на pirat.ca и получить 1000 дублонов.

Ваш код:
156f85568ae63e45e07ac461c96a83ba1a876b0a
 
     

Новые русские 2 (Кирилл Плетнёв, Владлена Санду, Светлана Самошина) [2015 г., комедия, триллер, драма, WEBRip] Original (RUS)

Ответить на тему
 
Автор
Сообщение

Пост 05-Дек-2015 11:22

[Q] 

aleksey99

--Новые русские 2-- Производство: Россия
Год выпуска: 2015 г.
Жанр: комедия, триллер, драма
Продолжительность: 01:42:25--Российская премьера: 17 сентября 2015, «Utopia Pictures»--Режиссер: Кирилл Плетнёв, Владлена Санду, Светлана Самошина--В ролях: Анна Уколова, Инга Оболдина, Мария Шульга, Альфия Закирова, Анастасия Белоусова, Алексей Сергеев, Искандер Шайхутдинов, Эдуард Кашпоров, Василиса Земскова, Александр Яценко--Описание: Романтическая эротика, жизнь как триллер, жёсткая криминально-психологическая драма, головокружительная черная комедия и интимный киноэскиз о непостоянстве красивых актрис — новая коллекция молодого и прогрессивного российского кино.-- --Качество видео: WEBRip
Контейнер: AVI
Видео кодек: XviD
Аудио кодек: AC3
Видео: 720x400 (1.80:1), 30 fps, XviD build 50 ~1893 kbps avg, 0.22 bit/pixel
Аудио: 48 kHz, AC3 Dolby Digital, 2/0 (L,R) ch, ~128 kbps
Cубтитры: отсутствуют
Общее
Полное имя : H:\Torrent2\N0v1e.RuSsk1e.2.2015.O.WEBRip.avi
Формат : AVI
Формат/Информация : Audio Video Interleave
Размер файла : 1,45 Гбайт
Продолжительность : 1 ч. 42 м.
Общий поток : 2034 Кбит/сек
Программа кодирования : VirtualDubMod 1.5.10.3 | www.virtualdub-fr.org || (build 2550/release)
Библиотека кодирования : VirtualDubMod build 2550/release
Видео
Идентификатор : 0
Формат : MPEG-4 Visual
Профиль формата : Advanced [email protected]
Параметр BVOP формата : 2
Параметр QPel формата : Нет
Параметр GMC формата : Без точки перехода
Параметр матрицы формата : Default (MPEG)
Идентификатор кодека : XVID
Идентификатор кодека/Подсказка : XviD
Продолжительность : 1 ч. 42 м.
Битрейт : 1894 Кбит/сек
Ширина : 720 пикселей
Высота : 400 пикселей
Соотношение сторон : 16:9
Частота кадров : 30,000 кадров/сек
Цветовое пространство : YUV
Субдискретизация насыщенности : 4:2:0
Битовая глубина : 8 бит
Тип развёртки : Прогрессивная
Метод сжатия : С потерями
Бит/(Пиксели*Кадры) : 0.219
Размер потока : 1,35 Гбайт (93%)
Библиотека кодирования : XviD 1.2.1 (UTC 2008-12-04)
Аудио
Идентификатор : 1
Формат : AC-3
Формат/Информация : Audio Coding 3
Расширение режима : CM (complete main)
Параметр Endianness формата : Big
Идентификатор кодека : 2000
Продолжительность : 1 ч. 42 м.
Вид битрейта : Постоянный
Битрейт : 128 Кбит/сек
Каналы : 2 канала
Расположение каналов : Front: L R
Частота : 48,0 КГц
Метод сжатия : С потерями
Размер потока : 93,8 Мбайт (6%)
Выравнивание : Разделение по промежуткам
Продолжительность промежутка : 33 мс. (1,00 видеокадр)
Время предзагрузки промежутка : 500 мс.
Трейлер
Download / Скачать

Хотите скачать бесплатно? Зарегистрируйтесь на сайте (ссылка на регистрацию). Pirat.ca - самый быстрый торрент трекер в рунете!

Как скачивать  ·   Что такое торрент  ·   Рейтинг и ограничения

Alexlogin

Гроза морей

105

Пост 05-Дек-2015 21:13 (спустя 9 часов)

[Q] 

Спасибо посмотрим
[Профиль]  [ЛС] 

cumberlady

Морской Волк

Пост 05-Дек-2015 22:00 (спустя 47 минут)

[Q] 

Очень любопытно, живо и необычно! Может ещё не всё потеряно...) !COOL! Автору респект!!!
[Профиль]  [ЛС] 

Vkach

Корсар

Пост 06-Дек-2015 11:56 (спустя 13 часов)

[Q] 

Спасибо! Заценим.
[Профиль]  [ЛС] 

ALEXPES2012

Пост 06-Дек-2015 13:24 (спустя 1 час 27 минут)

[Q] 

Мне что-то стало страшно за будущее Российского кинематографа. Он и так-то ничем особенно не радует в последнее время, но после просмотра этих короткометражек ощущение опустошённости, никчёмности и унылой безнадёги стало ошеломляющим. Отчего-то вспомнился термин "дегенеративное искусство"...
[Профиль]  [ЛС] 

Aleks44

Гроза морей

Пост 06-Дек-2015 13:32 (спустя 8 минут)

[Q] 

721177Мне что-то стало страшно за будущее Российского кинематографа. Он и так-то ничем особенно не радует в последнее время, но после просмотра этих короткометражек ощущение опустошённости, никчёмности и унылой безнадёги стало ошеломляющим. Отчего-то вспомнился термин "дегенеративное искусство"...
Задумка воплощена на экран обкуренного режиссера
[Профиль]  [ЛС] 

Region-89

Гроза морей

550

Пост 06-Дек-2015 14:11 (спустя 38 минут)

[Q] 

"Портфолио" ag ay

_________________
[Профиль]  [ЛС] 

rampage-2

Шкипер

Пост 08-Дек-2015 21:21 (спустя 2 дня 7 часов)

[Q] 

Это трэш! Жесткий-психологический - Арт-хаус, при просмотре этого фильма от тоски охота выпрыгнуть в окно.
Трафик потрачен зря!
[Профиль]  [ЛС] 

KoNiaL_KCC

Гроза морей

Пост 09-Дек-2015 00:51 (спустя 3 часа)

[Q] 

это же полный бред. я конечно понимаю, что это короткометражки, но не до такой же степени ((( тема с.сек раскрыта, отправляйте в раздел ххх. Отказать
[Профиль]  [ЛС] 

tse

Морской Волк

Пост 09-Дек-2015 18:28 (спустя 17 часов)

[Q] 

Скриншоты подобраны жосцко! Или все кино такое или тот кто подбирал проникся духом фильма. :)
[Профиль]  [ЛС] 

stas498

Корсар

Пост 16-Дек-2015 18:10 (спустя 6 дней)

[Q] 

721707Это трэш! Жесткий-психологический - Арт-хаус, при просмотре этого фильма от тоски охота выпрыгнуть в окно.
Трафик потрачен зря!
ПОЛНОСТЬЮ СОГЛАСЕН Не качайте!
[Профиль]  [ЛС] 

янка-сан

Гроза морей

Пост 19-Дек-2015 04:19 (спустя 2 дня 10 часов)

[Q] 

спасибо Автору респект!!!
[Профиль]  [ЛС] 

Пост 07-Янв-2016 11:56 (спустя 19 дней)

Топик был перенесен из форума Новинки (HD|DVD|BD| TV|SAT|PDTV| - Rips) в форум Российские фильмы
aleksey99
 

adf854

Лоцман

Пост 21-Фев-2016 18:13 (спустя 2 месяца 2 дня)

[Q] 

Полная туфта. Бредятина
[Профиль]  [ЛС] 
Показать сообщения:    
Ответить на тему

Текущее время: Сегодня 22:01

Часовой пояс: GMT + 4



Вы не можете начинать темы
Вы не можете отвечать на сообщения
Вы не можете редактировать свои сообщения
Вы не можете удалять свои сообщения
Вы не можете голосовать в опросах
Вы не можете прикреплять файлы к сообщениям
Вы не можете скачивать файлы

▼ Вниз