ML
     
  Уважаемый Гость!
Вы можете поддержать проект и зарегистрироваться у наших партнеров - онлайн-стратегия MyLands. При регистрации в игре Вы получите код, который сможете активировать после регистрации на pirat.ca и получить 1000 дублонов.

Ваш код:
21acd5966619d49ad0b90c3305467b4646cc11a8
 
     

Саранча (Егор Баранов) [2013 г., триллер, WEB-DLRip]

Ответить на тему
 
Автор
Сообщение

Пост 07-Дек-2015 14:38

[Q] 

Lion15

Корсар

Саранча-- Производство: Россия / Продюсерский центр «Среда»
Режиссер: Егор Баранов
Жанр: триллер
Год выпуска: 2013 г.
Продолжительность: 01:58:4
Российская премьера: 5 ноября 2015, «Централ Партнершип»
В ролях: Пётр Фёдоров, Паулина Андреева, Дмитрий Шевченко, Екатерина Волкова, Евгения Дмитриева, Максим Пинскер, Алексей Горбунов, Евгений Стычкин, Александр Голубков, Иван Щенин-Описание: У них не было ничего общего: Артем — простой парень из провинции, работяга и поэт, Лера — столичная штучка, чью жизнь распланировали родители. Но банальный курортный роман оборачивается обжигающей страстью, которая ломает судьбы. И хотя Лера выходит замуж за друга отца, а Артем назло женится на богатой даме постарше, их безумное влечение рушит все барьеры. Жажда плоти невыносима, и для приговоренных друг к другу любовников уже не существует ни правил, ни опасности, ни страха. И когда разрушительная страсть обагряется кровью, они уже не в силах остановиться…-Сэмпл КиноПоиск
Качество видео: WEB-DLRip
Контейнер: AVI
Видео кодек: XviD
Аудио кодек: AC3
Видео: 720x304 (2.37:1), 25 fps, XviD build 50 ~1624 kbps avg, 0.30 bit/pixe
Аудио: 48 kHz, AC3 Dolby Digital, 2/0 (L,R) ch, ~128 kbps

Код:
Общее
Полное имя                       : W:\C4P4Hcha.2015.O.WEB-DLRip.1.46GB.avi
Формат                           : AVI
Формат/Информация                : Audio Video Interleave
Размер файла                     : 1,46 Гбайт
Продолжительность                : 1 ч. 58 м.
Общий поток                      : 1763 Кбит/сек
Программа кодирования            : VirtualDubMod 1.5.10.3 | www.virtualdub-fr.org || (build 2550/release)
Библиотека кодирования           : VirtualDubMod build 2550/release
Видео
Идентификатор                    : 0
Формат                           : MPEG-4 Visual
Профиль формата                  : Advanced [email protected]
Параметр BVOP формата            : 2
Параметр QPel формата            : Нет
Параметр GMC формата             : Без точки перехода
Параметр матрицы формата         : Default (MPEG)
Идентификатор кодека             : XVID
Идентификатор кодека/Подсказка   : XviD
Продолжительность                : 1 ч. 58 м.
Битрейт                          : 1625 Кбит/сек
Ширина                           : 720 пикс.
Высота                           : 304 пикс.
Соотношение сторон               : 2,35:1
Частота кадров                   : 25,000 кадр/сек
Цветовое пространство            : YUV
Подвыборка цветности             : 4:2:0
Битовая глубина                  : 8 бит
Тип развёртки                    : Прогрессивная
Метод сжатия                     : С потерями
Бит/(Пиксели*Кадры)              : 0.297
Размер потока                    : 1,35 Гбайт (92%)
Библиотека кодирования           : XviD 1.2.1 (UTC 2008-12-04)
Аудио
Идентификатор                    : 1
Формат                           : AC-3
Формат/Информация                : Audio Coding 3
Расширение режима                : CM (complete main)
Идентификатор кодека             : 2000
Продолжительность                : 1 ч. 58 м.
Вид битрейта                     : Постоянный
Битрейт                          : 128 Кбит/сек
Канал(ы)                         : 2 канала(ов)
Расположение каналов             : Front: L R
Частота                          : 48,0 КГц
Битовая глубина                  : 16 бит
Метод сжатия                     : С потерями
Размер потока                    : 109 Мбайт (7%)
Выравнивание                     : Разделение по промежуткам
Продолжительность промежутка     : 40  мс. (1,00 видеокадр)
Время предзагрузки промежутка    : 500 ms
Download / Скачать

Хотите скачать бесплатно? Зарегистрируйтесь на сайте (ссылка на регистрацию). Pirat.ca - самый быстрый торрент трекер в рунете!

Как скачивать  ·   Что такое торрент  ·   Рейтинг и ограничения

aleksey99

282516

Пост 07-Дек-2015 20:13 (спустя 5 часов)

[Q] 

Lion15, делайте пожалуйста шрифт побольше dj

_________________

[Профиль]  [ЛС] 

Пост 07-Дек-2015 20:14 (спустя 36 секунд)

Топик был перенесен из форума Наше кино (Трюм) в форум Новинки (HD|DVD|BD| TV|SAT|PDTV| - Rips)
aleksey99
 

Lion15 ®

Корсар

6499

Пост 07-Дек-2015 22:11 (спустя 1 час 57 минут)

[Q] 

721483Lion15, делайте пожалуйста шрифт побольше dj
не вопрос

_________________
Не пытайтесь меня перекроить под себя, все равно..
[Профиль]  [ЛС] 

Zloy

Корсар

Пост 08-Дек-2015 08:21 (спустя 10 часов)

[Q] 

Посмотрю Лови бочку Раздающему респект! Мне интересно одно: а где кинчик два года "пылился"?
[Профиль]  [ЛС] 

янка-сан

Гроза морей

Пост 08-Дек-2015 15:55 (спустя 7 часов)

[Q] 

!COOL! Лови бочку давненько не было хорошего российского кино. мелодрамы и лавстори я смотрю крайне редко, все эти розовые сопли, заламывания рук... но... этот фильм вовсе не розовые сопли. отчего то прошла ассоциация с фильмом "подмосковные вечера" Валерия Тодоровского. такие же шикарные актеры в главных ролях ( Ингеборга Дапкунайте и Владимир Машков), такие же бущующие страсти...
возможно, стоит посмотреть, хотя бы для того, чтобы составить собственное мнение. ну - и воскресить веру в российский кинематограф)
[Профиль]  [ЛС] 

my1979

Корсар

Пост 10-Дек-2015 22:39 (спустя 2 дня 6 часов)

[Q] 

хороший фильм
сюжет только жестковат...
и беспощадный финал...
[Профиль]  [ЛС] 

kucha11

Корсар

Пост 11-Дек-2015 01:32 (спустя 2 часа 52 минуты)

[Q] 

Спасибо!!!
[Профиль]  [ЛС] 

лысый 777

Морской Волк

Пост 21-Дек-2015 12:47 (спустя 10 дней)

[Q] 

смотреть можно Автору респект!!!
[Профиль]  [ЛС] 

igem0n

Лоцман

Пост 29-Дек-2015 20:45 (спустя 8 дней)

[Q] 

Поднять паруса! скорость очень мала!
[Профиль]  [ЛС] 

TUS7884

Флибустьер

Пост 07-Янв-2016 06:24 (спустя 8 дней)

[Q] 

на один просмотр На любителя Спасибо!!!
[Профиль]  [ЛС] 

lexaspirit

Пост 03-Мар-2016 23:37 (спустя 1 месяц 27 дней)

[Q] 

Своеобразный фильм. Но мне понравился. Для меня финал был предскаруем

_________________
-------------------- ----------------------
[Профиль]  [ЛС] 

vampytch

Корсар

417

Пост 17-Мар-2016 06:13 (спустя 13 дней)

[Q] 

Зачётное кино, забираю в копилку! Спасибо!!! Раздающему респект!

_________________
Niemand außer uns!
[Профиль]  [ЛС] 
Показать сообщения:    
Ответить на тему

Текущее время: Сегодня 23:16

Часовой пояс: GMT + 4



Вы не можете начинать темы
Вы не можете отвечать на сообщения
Вы не можете редактировать свои сообщения
Вы не можете удалять свои сообщения
Вы не можете голосовать в опросах
Вы не можете прикреплять файлы к сообщениям
Вы не можете скачивать файлы

▼ Вниз