ML
     
  Уважаемый Гость!
Вы можете поддержать проект и зарегистрироваться у наших партнеров - онлайн-стратегия MyLands. При регистрации в игре Вы получите код, который сможете активировать после регистрации на pirat.ca и получить 1000 дублонов.

Ваш код:
062e2babcc491faeb40d496cf9a498ac3df6cdd0
 
     

Ангелы революции (Алексей Федорченко) [2015 г., драма, WEB-DLRip] Original (RUS)

Ответить на тему
 
Автор
Сообщение

Пост 07-Дек-2015 19:51

[Q] 

aleksey99

--Ангелы революции-- Производство: Россия, Красная стрела
Год выпуска: 2015 г.
Жанр: драма
Продолжительность: 01:48:15--Мировая премьера: 18 ноября 2014
Российская премьера: 5 ноября 2015, «Премьер-Кинопрокат»--Режиссер: Алексей Федорченко--В ролях: Дарья Екамасова, Олег Ягодин, Константин Балакирев, Павел Басов, Георгий Иобадзе, Алексей Солончев--Описание: Четверо друзей — поэт, актер, художник и кинорежиссер-примитивист — юные максималисты, ищут в молодой советской власти воплощение своих мечтаний и надежд. Революция бурлит как бутылка с яблочным вином: служебные собаки с крыльями и картошка в виде сердца, веселый нарком здравоохранения Семашко и грустные ангелы, любовь к Государю и любовь к секретарше Аннушке, расстрелы и беременности — все переплавилось и сплелось! Мечты друзей не сбудутся. Очень скоро по ним пройдется катком наша История. Но пока герои живут Грядущим и Любовью…-- --Качество видео: WEB-DLRip
Контейнер: AVI
Видео кодек: XviD
Аудио кодек: AC3
Видео: 720x400 (1.80:1), 23.976 fps, XviD build 50 ~1605 kbps avg, 0.23 bit/pixel
Аудио: 48 kHz, AC3 Dolby Digital, 2/0 (L,R) ch, ~192 kbps
Cубтитры: отсутствуют
Общее
Полное имя : H:\Torrent1\AngeliRevolutc11.2014.O.WEB-DLRip.1400Mb.avi
Формат : AVI
Формат/Информация : Audio Video Interleave
Размер файла : 1,37 Гбайт
Продолжительность : 1 ч. 48 м.
Общий поток : 1807 Кбит/сек
Программа кодирования : VirtualDubMod 1.5.10.2 (build 2540/release)
Библиотека кодирования : VirtualDubMod build 2540/release
Видео
Идентификатор : 0
Формат : MPEG-4 Visual
Профиль формата : Advanced [email protected]
Параметр BVOP формата : 2
Параметр QPel формата : Нет
Параметр GMC формата : Без точки перехода
Параметр матрицы формата : Default (MPEG)
Идентификатор кодека : XVID
Идентификатор кодека/Подсказка : XviD
Продолжительность : 1 ч. 48 м.
Битрейт : 1606 Кбит/сек
Ширина : 720 пикселей
Высота : 400 пикселей
Соотношение сторон : 16:9
Частота кадров : 23,976 кадра/сек
Цветовое пространство : YUV
Субдискретизация насыщенности : 4:2:0
Битовая глубина : 8 бит
Тип развёртки : Прогрессивная
Метод сжатия : С потерями
Бит/(Пиксели*Кадры) : 0.233
Размер потока : 1,21 Гбайт (89%)
Библиотека кодирования : XviD 1.2.1 (UTC 2008-12-04)
Аудио
Идентификатор : 1
Формат : AC-3
Формат/Информация : Audio Coding 3
Расширение режима : CM (complete main)
Параметр Endianness формата : Big
Идентификатор кодека : 2000
Продолжительность : 1 ч. 48 м.
Вид битрейта : Постоянный
Битрейт : 192 Кбит/сек
Каналы : 2 канала
Расположение каналов : Front: L R
Частота : 48,0 КГц
Метод сжатия : С потерями
Размер потока : 149 Мбайт (11%)
Выравнивание : Разделение по промежуткам
Продолжительность промежутка : 42 мс. (1,00 видеокадр)
Время предзагрузки промежутка : 500 мс.
Трейлер
Download / Скачать

Хотите скачать бесплатно? Зарегистрируйтесь на сайте (ссылка на регистрацию). Pirat.ca - самый быстрый торрент трекер в рунете!

Как скачивать  ·   Что такое торрент  ·   Рейтинг и ограничения

KoNiaL_KCC

Гроза морей

Пост 09-Дек-2015 12:59 (спустя 1 день 17 часов)

[Q] 

даже страшно скачивать, ни одного отзыва. рейтинг на нуле, количество зрителей в кинотеатрах тоже те многовато. Скриншоты намекают на очередной Российский "шедевр". Рискну скачать. ch
[Профиль]  [ЛС] 

Hausser

Гроза морей

Пост 09-Дек-2015 17:09 (спустя 4 часа)

[Q] 

Чую, фильм - дичайшая дичь:)
[Профиль]  [ЛС] 

tse

Морской Волк

Пост 09-Дек-2015 18:24 (спустя 1 час 15 минут)

[Q] 

721878Чую, фильм - дичайшая дичь:)
Скриншоты бредоваты. Да уж, российский кинематограф уже не торт!
[Профиль]  [ЛС] 

Vkach

Корсар

Пост 10-Дек-2015 09:51 (спустя 15 часов)

[Q] 

Мягко говоря не понравился!
[Профиль]  [ЛС] 

ТАЛИ

Корсар

Пост 04-Янв-2016 00:15 (спустя 24 дня)

[Q] 

Если бы не репетиция спектакля про енотиков в начале фильма, я б, наверно, после нескольких последующих эпизодов бросила бы просмотр:) Но потихоньку втянулась и казавшиеся сумбурными скетчи сложились в целостную картину. Кино, конечно, не для всех. Но это довольно оригинальная авторская работа, в духе эпохи, про которую фильм снят. Сейчас модно показывать революционеров кровожадными монстрами. А ведь наверняка большинство из них были именно такие, как в фильме - мечтающие о радикальном преобразовании мира,увлеченные, искренние и наивные, как дети. Да, авангардное искусство не смогло победить вековые традиции... В какой-то момент фильма этот факт даже вызывает возмущение, хотя моральная сторона вопроса весьма спорна. Значит фильм зацепил. Для меня это показатель талантливости произведения.
[Профиль]  [ЛС] 
Показать сообщения:    
Ответить на тему

Текущее время: Сегодня 17:38

Часовой пояс: GMT + 4



Вы не можете начинать темы
Вы не можете отвечать на сообщения
Вы не можете редактировать свои сообщения
Вы не можете удалять свои сообщения
Вы не можете голосовать в опросах
Вы не можете прикреплять файлы к сообщениям
Вы не можете скачивать файлы

▼ Вниз