ML
     
  Уважаемый Гость!
Вы можете поддержать проект и зарегистрироваться у наших партнеров - онлайн-стратегия MyLands. При регистрации в игре Вы получите код, который сможете активировать после регистрации на pirat.ca и получить 1000 дублонов.

Ваш код:
dbd0d701284cde74a1f34d06ce20b7bc75a73e75
 
     

Мой парень - ангел ( Вера Сторожева )[2011, фэнтези, мелодрама, комедия, BDRip-AVC]

Ответить на тему
 
Автор
Сообщение

Пост 28-Янв-2012 12:10

[Q] 

Smaq

Морской Волк

Мой парень - ангел«Все парни, как парни, а...»-

Страна: Россия
Жанр: фэнтези, мелодрама, комедия, приключения
Год выпуска: 2011
Продолжительность: 01:37:29-Перевод: Не требуется
Режиссер: Вера Сторожева
В ролях: Артур Смольянинов (Серафим), Анна Старшенбаум (Александра), Сергей Пускепалис (папа Александры), Екатерина Вуличенко, Иван Охлобыстин, Гоша Куценко, Никита Ефремов, Иван Макаревич, Андрей Леонов, Василий Степанов, Ольга Попова, Алексей Маслодудов-Описание: XXI век. Мегаполис. Сотни, тысячи людей окружают тебя каждый день. Но ты даже и представить себе не можешь, что среди этой многоликой толпы прямо перед тобой может оказаться… Ангел. Студентка Саша с большим трудом верит, что такое бывает. Ангелу Серафиму приходится приложить немало усилий, чтобы доказать ей, что Ангелы существуют. Но он не учёл одного - если девушка тебе поверит, она, скорее всего, тебя полюбит. А разве можно влюбиться в Ангела?- -сэмпл
Качество: BDRip-AVC
Контейнер: MKV
Видео: AVC, 1024x576 (16:9), 1976 kbps, 23,976 fps, 0,140 bpp
Аудио: русский / AC3 / 5.1 / 48 kHz / 448 kbps / 16 bit-
General
Unique ID : 198252568275052570640320245338128485102 (0x95260E478CB0ED34AA854ECC4A5F8AEE)
Complete name : C:\к нам !!\раздачи\мой парень ангел\Moj.Paren'.Angel.2011.O.BDRip.x264.R.G.AVI.AVC.mkv
Format : MatroH.264ska
Format version : Version 2
File size : 1.65 GiB
Duration : 1h 37mn
Overall bit rate : 2 425 Kbps
Movie name : -=POTROKS=-
Encoded date : UTC 2012-01-27 16:12:34
Writing application : mkvmerge v5.0.1 ('Es ist Sommer') built on Oct 9 2011 11:55:43
Writing library : libebml v1.2.2 + libmatroska v1.3.0
Video
ID : 1
Format : AVC
Format/Info : Advanced Video Codec
Format profile : [email protected]
Format settings, CABAC : Yes
Format settings, ReFrames : 7 frames
Codec ID : V_MPEG4/ISO/AVC
Duration : 1h 37mn
Bit rate : 1 976 Kbps
Width : 1 024 pixels
Height : 576 pixels
Display aspect ratio : 16:9
Frame rate mode : Variable
Frame rate : 23.976 fps
Color space : YUV
Chroma subsampling : 4:2:0
Bit depth : 8 bits
Scan type : Progressive
Bits/(Pixel*Frame) : 0.140
Stream size : 1.31 GiB (80%)
Title : Moj.Paren'.Angel.2011.O.BDRip.x264.R.G.AVI.AVC
Writing library : x264 core 116 r2019M 9cc407d
Encoding settings : cabac=1 / ref=8 / deblock=1:-2:-1 / analyse=0x3:0x133 / me=umh / subme=9 / psy=1 / psy_rd=1.00:0.20 / mixed_ref=1 / me_range=42 / chroma_me=1 / trellis=1 / 8x8dct=1 / cqm=0 / deadzone=21,11 / fast_pskip=0 / chroma_qp_offset=-3 / threads=8 / sliced_threads=0 / nr=0 / decimate=1 / interlaced=0 / bluray_compat=0 / constrained_intra=0 / bframes=10 / b_pyramid=1 / b_adapt=2 / b_bias=0 / direct=3 / weightb=1 / open_gop=0 / weightp=2 / keyint=230 / keyint_min=23 / scenecut=45 / intra_refresh=0 / rc_lookahead=40 / rc=2pass / mbtree=1 / bitrate=1976 / ratetol=1.0 / qcomp=0.60 / qpmin=10 / qpmax=51 / qpstep=4 / cplxblur=20.0 / qblur=0.5 / ip_ratio=1.40 / aq=1:1.20
Language : Russian
Default : Yes
Forced : No
Audio
ID : 2
Format : AC-3
Format/Info : Audio Coding 3
Mode extension : CM (complete main)
Codec ID : A_AC3
Duration : 1h 37mn
Bit rate mode : Constant
Bit rate : 448 Kbps
Channel(s) : 6 channels
Channel positions : Front: L C R, Side: L R, LFE
Sampling rate : 48.0 KHz
Bit depth : 16 bits
Compression mode : Lossy
Stream size : 312 MiB (18%)
Language : Russian
Default : Yes
Forced : Yes
Download / Скачать

Хотите скачать бесплатно? Зарегистрируйтесь на сайте (ссылка на регистрацию). Pirat.ca - самый быстрый торрент трекер в рунете!

Как скачивать  ·   Что такое торрент  ·   Рейтинг и ограничения



Последний раз редактировалось: Smaq (2012-01-28 17:16), всего редактировалось 1 раз

Пост 28-Янв-2012 18:49 (спустя 6 часов)

Топик был перенесен из форума Художественные фильмы (Зарубежное кино) в форум Новинки (HD|DVD|BD|TV|SAT|PDTV| - Rips)

Skinwalker
 

Vladmen

Лоцман

Пост 29-Янв-2012 21:36 (спустя 1 день 9 часов)

[Q] 

Забавный фильм.
[Профиль]  [ЛС] 

_koba

Легенда

Пост 31-Янв-2012 10:45 (спустя 1 день 13 часов)

[Q] 

Фильм действительно забавный и главное просмотр не напрягает.
[Профиль]  [ЛС] 

rezjus

Корсар

Пост 04-Фев-2012 17:16 (спустя 4 дня)

[Q] 

То есть рекомендуете?
[Профиль]  [ЛС] 

vvkkos

Шкипер

Пост 04-Фев-2012 17:20 (спустя 4 минуты)

[Q] 

прикольная сказка
[Профиль]  [ЛС] 

lis777

Корсар

Пост 04-Фев-2012 21:42 (спустя 4 часа)

[Q] 

фильм классный качайте не пожалеете
[Профиль]  [ЛС] 

sexy911

Шкипер

1

Пост 05-Фев-2012 20:10 (спустя 22 часа)

[Q] 

фильм классный качайте не пожалеете
забираю,помогу в раздаче

_________________
Подпись отключена за нарушение правил форума
[Профиль]  [ЛС] 

sexy911

Шкипер

1

Пост 05-Фев-2012 20:11 (спустя 1 минута)

[Q] 

скорость радует

_________________
Подпись отключена за нарушение правил форума
[Профиль]  [ЛС] 

MOPRK

Флибустьер

Пост 07-Фев-2012 21:13 (спустя 2 дня 1 час)

[Q] 

[Профиль]  [ЛС] 

italiano711

Гроза морей

Пост 18-Фев-2012 16:53 (спустя 10 дней)

[Q] 

[Профиль]  [ЛС] 

storm

Морской Волк

Пост 18-Фев-2012 17:33 (спустя 39 минут)

[Q] 

Неплохой фильм, разок глянуть можно.
[Профиль]  [ЛС] 

Пост 20-Фев-2012 10:57 (спустя 1 день 17 часов)

Топик был перенесен из форума Новинки (HD|DVD|BD|TV|SAT|PDTV| - Rips) в форум Российские фильмы

Skinwalker
 

Aib0lid

Морской Волк

Пост 05-Мар-2012 11:25 (спустя 15 дней)

[Q] 

[Профиль]  [ЛС] 

and28

Морской Волк

Пост 07-Мар-2012 01:56 (спустя 1 день 14 часов)

[Q] 

[Профиль]  [ЛС] 
Показать сообщения:    
Ответить на тему

Текущее время: Сегодня 18:30

Часовой пояс: GMT + 4



Вы не можете начинать темы
Вы не можете отвечать на сообщения
Вы не можете редактировать свои сообщения
Вы не можете удалять свои сообщения
Вы не можете голосовать в опросах
Вы не можете прикреплять файлы к сообщениям
Вы не можете скачивать файлы

▼ Вниз