ML
     
  Уважаемый Гость!
Вы можете поддержать проект и зарегистрироваться у наших партнеров - онлайн-стратегия MyLands. При регистрации в игре Вы получите код, который сможете активировать после регистрации на pirat.ca и получить 1000 дублонов.

Ваш код:
2fd4e750dd89cae3a36ea360f2b345ccfeb562d3
 
     

Переводчик (Алексей Нужный) [2015 г., криминал, драма, WEB-DLRip] Original (RUS)

Ответить на тему
 
Автор
Сообщение

Пост 13-Дек-2015 08:49

[Q] 

aleksey99

--Переводчик-- Производство: Россия
Год выпуска: 2015 г.
Жанр: криминал, драма
Продолжительность: 01:09:18--Российская премьера: 12 ноября 2015, «Централ Партнершип»--Режиссер: Алексей Нужный--В ролях: Леонид Ярмольник, Александр Ильин мл., Мария Андреева, Дмитрий Астрахан, Семен Трескунов, Луиза-Габриэла Бровина, Клара Лаго, Михаил Шамигулов, Станислав Дужников, Елена Плаксина--Описание: Воскресный папа отправляется в командировку вместе со своим двенадцатилетним сыном. Оказавшись свидетелем криминальной разборки, которую затеял главарь местной банды, сын попадает в больницу. Спасти жизнь мальчику может операция за границей. Но она стоит больших денег. Отец решается на отчаянный шаг — он соглашается исполнить три желания главаря банды.-- --Качество видео: WEB-DLRip
Контейнер: AVI
Видео кодек: XviD
Аудио кодек: AC3
Видео: 720x304 (2.37:1), 25 fps, XviD build 50 ~2365 kbps avg, 0.43 bit/pixel
Аудио: 48 kHz, AC3 Dolby Digital, 2/0 (L,R) ch, ~448 kbps
Cубтитры: отсутствуют
Общее
Полное имя : H:\Torrent2\pePeB0d41K.2015.O.WEB-DLRip.1400MB.avi
Формат : AVI
Формат/Информация : Audio Video Interleave
Размер файла : 1,37 Гбайт
Продолжительность : 1 ч. 9 м.
Общий поток : 2824 Кбит/сек
Программа кодирования : VirtualDubMod 1.5.10.2 (build 2540/release)
Видео
Идентификатор : 0
Формат : MPEG-4 Visual
Профиль формата : Advanced [email protected]
Параметр BVOP формата : 2
Параметр QPel формата : Нет
Параметр GMC формата : Без точки перехода
Параметр матрицы формата : Default (MPEG)
Идентификатор кодека : XVID
Идентификатор кодека/Подсказка : XviD
Продолжительность : 1 ч. 9 м.
Битрейт : 2366 Кбит/сек
Ширина : 720 пикселей
Высота : 304 пикселя
Соотношение сторон : 2,35:1
Частота кадров : 25,000 кадров/сек
Цветовое пространство : YUV
Субдискретизация насыщенности : 4:2:0
Битовая глубина : 8 бит
Тип развёртки : Прогрессивная
Метод сжатия : С потерями
Бит/(Пиксели*Кадры) : 0.432
Размер потока : 1,15 Гбайт (84%)
Библиотека кодирования : XviD 1.2.1 (UTC 2008-12-04)
Аудио
Идентификатор : 1
Формат : AC-3
Формат/Информация : Audio Coding 3
Расширение режима : CM (complete main)
Параметр Endianness формата : Big
Идентификатор кодека : 2000
Продолжительность : 1 ч. 9 м.
Вид битрейта : Постоянный
Битрейт : 448 Кбит/сек
Каналы : 2 канала
Расположение каналов : Front: L R
Частота : 48,0 КГц
Метод сжатия : С потерями
Размер потока : 222 Мбайт (16%)
Выравнивание : Разделение по промежуткам
Продолжительность промежутка : 40 мс. (1,00 видеокадр)
Время предзагрузки промежутка : 500 мс.
Трейлер
Download / Скачать

Хотите скачать бесплатно? Зарегистрируйтесь на сайте (ссылка на регистрацию). Pirat.ca - самый быстрый торрент трекер в рунете!

Как скачивать  ·   Что такое торрент  ·   Рейтинг и ограничения

ZiminY

Гроза морей

3242

Пост 13-Дек-2015 11:28 (спустя 2 часа 38 минут)

[Q] 

Лови бочку Раздающему респект!
Посмотрим, заценим...

_________________
[Профиль]  [ЛС] 

vinylovi4

Гроза морей

Пост 13-Дек-2015 11:43 (спустя 14 минут)

[Q] 

бочечку в студию :)
[Профиль]  [ЛС] 

almadina

Шкипер

Пост 13-Дек-2015 12:24 (спустя 41 минута)

[Q] 

Посмотрела пол-фильма. Как-то... bn
Досмотрела до конца. Заставляет задуматься о смысле и приоритетах в жизни.
Но вообще такое построение фильма на любителя. Не по мне то есть.
А раздающему Спасибо!!!
[Профиль]  [ЛС] 

Hausser

Гроза морей

Пост 13-Дек-2015 13:27 (спустя 1 час 3 минуты)

[Q] 

Из-за рожи Ярмольника на последнем скрине, чё-то я очкую качать)
[Профиль]  [ЛС] 

almadina

Шкипер

Пост 13-Дек-2015 13:36 (спустя 8 минут)

[Q] 

Hausser, так он психа играет. Вот и рожа такая. be
[Профиль]  [ЛС] 

ktest0

Корсар

33

Пост 13-Дек-2015 15:13 (спустя 1 час 37 минут)

[Q] 

ЛОБАНОВ!!!!!!!ё!!1111111111 bj
[Профиль]  [ЛС] 

лысый 777

Морской Волк

Пост 13-Дек-2015 16:41 (спустя 1 час 27 минут)

[Q] 

беру !!! Спасибо!!! Автору респект!!!
[Профиль]  [ЛС] 

KoNiaL_KCC

Гроза морей

Пост 13-Дек-2015 20:20 (спустя 3 часа)

[Q] 

набор актеров как обычно радует bj рейтинг тоже маловат. посмотрим. Лови бочку
[Профиль]  [ЛС] 

MaK1auD

Мичман

Пост 13-Дек-2015 20:45 (спустя 25 минут)

[Q] 

Просто нереально тупой и убогий фильм... Но на вкус и цвет, в принципе. За труды - спасибо.
[Профиль]  [ЛС] 

ZiminY

Гроза морей

3242

Пост 13-Дек-2015 21:06 (спустя 20 минут)

[Q] 

Хорошие отцы не всегда хорошие люди...

_________________
[Профиль]  [ЛС] 

sokol77

Шкипер

128

Пост 14-Дек-2015 04:54 (спустя 7 часов)

[Q] 

когда говорят тупой и убогий фильм,базара нет, сними лучше,камеру тебе в руки. скажу так,что на данном этапе отечественный кинематограф оставляет желать лучшего,но ребята стараются и как бы то ни было он наш и приходиться довольствоваться тем что есть,да! фантазии мало,инициативность в сценарии и в игре отсутствует к сожалению, время Станиславского уходит в небытие, время коммерческого кино и с этим приходится мириться Лови бочку
[Профиль]  [ЛС] 

Maks_e

Корсар

69

Пост 16-Дек-2015 05:01 (спустя 2 дня)

[Q] 

Лови бочку !COOL!
[Профиль]  [ЛС] 

grosboy

Флибустьер

Пост 19-Дек-2015 09:39 (спустя 3 дня)

[Q] 

Вполне смотритбительный фильм с понятным сюжетом, но слабовато реализованным на экране. На разок глянуть сойдёт. На любителя Автору респект!!!

_________________
Щастье есть - его не может не быть...
[Профиль]  [ЛС] 

alexman

Корсар

Пост 20-Дек-2015 21:01 (спустя 1 день 11 часов)

[Q] 

Нормальный фильм. Смотреть можно. Автору респект!!!
[Профиль]  [ЛС] 

TUS7884

Флибустьер

Пост 13-Янв-2016 10:16 (спустя 23 дня)

[Q] 

мля какая то чушь На любителя
[Профиль]  [ЛС] 

Пост 25-Янв-2016 07:47 (спустя 11 дней)

Топик был перенесен из форума Новинки (HD|DVD|BD| TV|SAT|PDTV| - Rips) в форум Российские фильмы
aleksey99
 
Показать сообщения:    
Ответить на тему

Текущее время: Сегодня 14:11

Часовой пояс: GMT + 4



Вы не можете начинать темы
Вы не можете отвечать на сообщения
Вы не можете редактировать свои сообщения
Вы не можете удалять свои сообщения
Вы не можете голосовать в опросах
Вы не можете прикреплять файлы к сообщениям
Вы не можете скачивать файлы

▼ Вниз