ML
     
  Уважаемый Гость!
Вы можете поддержать проект и зарегистрироваться у наших партнеров - онлайн-стратегия MyLands. При регистрации в игре Вы получите код, который сможете активировать после регистрации на pirat.ca и получить 1000 дублонов.

Ваш код:
2fd4e750dd89cae3a36ea360f2b345ccfeb562d3
 
     

Война полов (Кирилл Кузин) [2015 г., комедия, WEB-DLRip] Original (Rus)

Ответить на тему
 
Автор
Сообщение

Пост 13-Дек-2015 18:53

[Q] 

ara1205

-Война полов-- Производство: Россия
Год выпуска: 2015 г.
Жанр: комедия
Продолжительность: 01:26:11
Мировая премьера: 22 октября 2015
Оригинальный аудиопоток: русский-Режиссер: Кирилл Кузин-В ролях: Харальд Розенстрём, Александр Пальчиков, Екатерина Кузнецова, Сабина Ахмедова, Алексей Демидов, Марина Федункив, Анатолий Белый, Борис Эстрин, Артём Семакин-Описание: Что завтра на рассвете с каждым из нас случится, не знает никто. И когда ТРИ наших героя проснулись на необитаемом острове, в компании ДВУХ красивых… но не очень дружелюбных девушек… да еще без воды и еды… Вот тут они и поняли, что жизнь действительно полна сюрпризов!- -Качество видео: WEB-DLRip
Контейнер: AVI
Видео кодек: XviD
Аудио кодек: MP3
Видео: 688x288, 25 fps, 1070 kbps avg, 0.216 bit/pixel
Аудио: 48,0 kHz, MPEG Layer 3, 2 ch, ~128.00 kbps avg
Cубтитры: отсутствуют-
Общее
Полное имя : C:\Users\Roman\Pictures\Война полов\Voina.Polov.2015.WEB-DLRip.745Mb.avi
Формат : AVI
Формат/Информация : Audio Video Interleave
Размер файла : 745 Мбайт
Продолжительность : 1 ч. 26 м.
Общий поток : 1208 Кбит/сек
Название фильма : Voina.Polov.2015.WEB-DLRip.745Mb.[pirat.ca]
Режиссёр : http://pirat.ca
Программа кодирования : VirtualDubMod 1.5.10.3 | www.virtualdub-fr.org || (build 2550/release)
Видео
Идентификатор : 0
Формат : MPEG-4 Visual
Профиль формата : Advanced [email protected]
Параметр BVOP формата : 2
Параметр QPel формата : Нет
Параметр GMC формата : Без точки перехода
Параметр матрицы формата : Default (MPEG)
Идентификатор кодека : XVID
Идентификатор кодека/Подсказка : XviD
Продолжительность : 1 ч. 26 м.
Битрейт : 1070 Кбит/сек
Ширина : 688 пикселей
Высота : 288 пикселей
Соотношение сторон : 2,40:1
Частота кадров : 25,000 кадров/сек
Цветовое пространство : YUV
Субдискретизация насыщенности : 4:2:0
Битовая глубина : 8 бит
Тип развёртки : Прогрессивная
Метод сжатия : С потерями
Бит/(Пиксели*Кадры) : 0.216
Размер потока : 660 Мбайт (89%)
Библиотека кодирования : XviD 73
Аудио
Идентификатор : 1
Формат : MPEG Audio
Версия формата : Version 1
Профиль формата : Layer 3
Идентификатор кодека : 55
Идентификатор кодека/Подсказка : MP3
Продолжительность : 1 ч. 26 м.
Вид битрейта : Постоянный
Битрейт : 128 Кбит/сек
Каналы : 2 канала
Частота : 48,0 КГц
Метод сжатия : С потерями
Размер потока : 79,0 Мбайт (11%)
Выравнивание : Соединение по промежуткам
Продолжительность промежутка : 40 мс. (1,00 видеокадр)
Время предзагрузки промежутка : 504 мс.
Библиотека кодирования : LAMELAME_MAJOR_VERSI
-
-
Download / Скачать

Хотите скачать бесплатно? Зарегистрируйтесь на сайте (ссылка на регистрацию). Pirat.ca - самый быстрый торрент трекер в рунете!

Как скачивать  ·   Что такое торрент  ·   Рейтинг и ограничения

Red Corsair

Шкипер

105

Пост 13-Дек-2015 22:35 (спустя 3 часа)

[Q] 

Звук...( Нужно аж 100 баллов на телеке для комфортного просмотра..
[Профиль]  [ЛС] 

Alex-dix

Флибустьер

Пост 01-Янв-2016 20:20 (спустя 18 дней)

[Q] 

Спасибо! Автору респект!!! Одобрямс!
[Профиль]  [ЛС] 

bolin

Флибустьер

Пост 01-Янв-2016 21:20 (спустя 1 час)

[Q] 

Посмотрим посмотрим!!!Спасибо за раздачу!
[Профиль]  [ЛС] 

platon18

Гроза морей

Пост 02-Янв-2016 12:00 (спустя 14 часов)

[Q] 

Посмотрим посмотрим!!!Спасибо за раздачу!
[Профиль]  [ЛС] 

Barskavkaz

Корсар

Пост 03-Янв-2016 02:45 (спустя 14 часов)

[Q] 

очередная бредятина))

_________________
Д.Тк
[Профиль]  [ЛС] 

Пост 25-Янв-2016 07:54 (спустя 22 дня)

Топик был перенесен из форума Новинки (HD|DVD|BD| TV|SAT|PDTV| - Rips) в форум Российские фильмы
aleksey99
 
Показать сообщения:    
Ответить на тему

Текущее время: Сегодня 14:15

Часовой пояс: GMT + 4



Вы не можете начинать темы
Вы не можете отвечать на сообщения
Вы не можете редактировать свои сообщения
Вы не можете удалять свои сообщения
Вы не можете голосовать в опросах
Вы не можете прикреплять файлы к сообщениям
Вы не можете скачивать файлы

▼ Вниз