ML
     
  Уважаемый Гость!
Вы можете поддержать проект и зарегистрироваться у наших партнеров - онлайн-стратегия MyLands. При регистрации в игре Вы получите код, который сможете активировать после регистрации на pirat.ca и получить 1000 дублонов.

Ваш код:
062e2babcc491faeb40d496cf9a498ac3df6cdd0
 
     

Зеленая карета (Олег Асадулин) [2015 г., драма, WEB-DLRip] Original (RUS)[iTunes]

Ответить на тему
 
Автор
Сообщение

Пост 17-Дек-2015 20:25

[Q] 

aleksey99

--Зеленая карета--«Жизнь - это совсем другое кино»-- Производство: Россия
Год выпуска: 2015 г.
Жанр: драма
Продолжительность: 01:30:27--Российская премьера: 26 ноября 2015, «25th Floor Film»--Режиссер: Олег Асадулин--В ролях: Андрей Мерзликин, Виктория Исакова, Александр Мичков, Сергей Юшкевич, Владимир Меньшов, Анна Чиповская, Ян Цапник, Женя Малахова, Дмитрий Астрахан, Андрей Леонов--Описание: Вадим Раевский — известный режиссер, у которого есть все: деньги, красивые женщины, всеобщее признание. Его новый фильм даже выдвигают на «Оскар». Казалось, удача сама преследует его, но всегда ли она будет к нему благосклонна? Буквально в один миг его привычный мир рушится. Вадим пытается разобраться в случившемся, но чем дальше он заходит в своем расследовании, тем больше шокирующих подробностей ему открывается…-- --Качество видео: WEB-DLRip
Контейнер: AVI
Видео кодек: XviD
Аудио кодек: AC3
Видео: 720x304 (2.37:1), 25 fps, XviD build 50 ~1908 kbps avg, 0.35 bit/pixel
Аудио: 48 kHz, AC3 Dolby Digital, 3/2 (L,C,R,l,r) + LFE ch, ~384 kbps
Cубтитры: отсутствуют
Общее
Полное имя : H:\Torrent2\3eleHaia.Kareta.2015.O.WEB-DLRip.1.46GB.avi
Формат : AVI
Формат/Информация : Audio Video Interleave
Размер файла : 1,45 Гбайт
Продолжительность : 1 ч. 30 м.
Общий поток : 2303 Кбит/сек
Программа кодирования : VirtualDubMod 1.5.10.2 (build 2540/release)
Библиотека кодирования : VirtualDubMod build 2540/release
Видео
Идентификатор : 0
Формат : MPEG-4 Visual
Профиль формата : Advanced [email protected]
Параметр BVOP формата : 2
Параметр QPel формата : Нет
Параметр GMC формата : Без точки перехода
Параметр матрицы формата : Default (MPEG)
Идентификатор кодека : XVID
Идентификатор кодека/Подсказка : XviD
Продолжительность : 1 ч. 30 м.
Битрейт : 1909 Кбит/сек
Ширина : 720 пикселей
Высота : 304 пикселя
Соотношение сторон : 2,35:1
Частота кадров : 25,000 кадров/сек
Цветовое пространство : YUV
Субдискретизация насыщенности : 4:2:0
Битовая глубина : 8 бит
Тип развёртки : Прогрессивная
Метод сжатия : С потерями
Бит/(Пиксели*Кадры) : 0.349
Размер потока : 1,21 Гбайт (83%)
Библиотека кодирования : XviD 1.2.1 (UTC 2008-12-04)
Аудио
Идентификатор : 1
Формат : AC-3
Формат/Информация : Audio Coding 3
Расширение режима : CM (complete main)
Параметр Endianness формата : Big
Идентификатор кодека : 2000
Продолжительность : 1 ч. 30 м.
Вид битрейта : Постоянный
Битрейт : 384 Кбит/сек
Каналы : 6 каналов
Расположение каналов : Front: L C R, Side: L R, LFE
Частота : 48,0 КГц
Метод сжатия : С потерями
Размер потока : 248 Мбайт (17%)
Выравнивание : Разделение по промежуткам
Продолжительность промежутка : 40 мс. (1,00 видеокадр)
Время предзагрузки промежутка : 500 мс.
Трейлер
Download / Скачать

Хотите скачать бесплатно? Зарегистрируйтесь на сайте (ссылка на регистрацию). Pirat.ca - самый быстрый торрент трекер в рунете!

Как скачивать  ·   Что такое торрент  ·   Рейтинг и ограничения

demon-292

Корсар

Пост 17-Дек-2015 23:43 (спустя 3 часа)

[Q] 

Спасибо, посмотрим! Бочка, как всегда! Лови бочку
[Профиль]  [ЛС] 

янка-сан

Гроза морей

Пост 18-Дек-2015 00:14 (спустя 31 минута)

[Q] 

а вдруг?)) Лови бочку
[Профиль]  [ЛС] 

Мишки

Морской Волк

Пост 18-Дек-2015 01:17 (спустя 1 час 3 минуты)

[Q] 

Мерзликина беру

_________________
Это всего лишь игра, настройся на волну позитива!:)
[Профиль]  [ЛС] 

savatey

Корсар

Пост 18-Дек-2015 02:19 (спустя 1 час 1 минута)

[Q] 

Спасибо ! Посмотрим .

_________________
[Профиль]  [ЛС] 

Мишки

Морской Волк

Пост 18-Дек-2015 16:35 (спустя 14 часов)

[Q] 

Хороший фильм, заставляет задуматься.

_________________
Это всего лишь игра, настройся на волну позитива!:)
[Профиль]  [ЛС] 

Lex Iilyin

Морской Волк

Пост 18-Дек-2015 17:34 (спустя 59 минут)

[Q] 

723495Хороший фильм, заставляет задуматься.
Ну раз хороший, то посмотрим =)
Спасибо!!!
[Профиль]  [ЛС] 

activ1

Корсар

Пост 18-Дек-2015 20:46 (спустя 3 часа)

[Q] 

Лови бочку
[Профиль]  [ЛС] 

kinstintin

Гроза морей

Пост 18-Дек-2015 22:59 (спустя 2 часа 12 минут)

[Q] 

премного благодарен
посмотрим на досуге
[Профиль]  [ЛС] 

almadina

Шкипер

Пост 22-Дек-2015 16:59 (спустя 3 дня)

[Q] 

Серьезный фильм! Очень рекомендую!
Смысл фильма - надо жить и помнить, что второго дубля, чтобы все изменить, не будет!
Раздающему Спасибо!!!
[Профиль]  [ЛС] 

Полтос

Флибустьер

Пост 23-Дек-2015 11:43 (спустя 18 часов)

[Q] 

724417Серьезный фильм! Очень рекомендую!
Смысл фильма - надо жить и помнить, что второго дубля, чтобы все изменить, не будет!
Раздающему Спасибо!!!
Дополню предыдущий комментарий - карьера, блуд и положение в обществе - это все наносное и чуждое русскому человеку, главное - это семья и друзья, то есть межличностные человеческие отношения в нашем обществе. Если вы разделяете эту точку зрения, то фильм стоит смотреть.

_________________
Первый закон Прапорщика: Всё что поднимаемо - относительно!)
[Профиль]  [ЛС] 

Jek@

Легенда

Пост 23-Дек-2015 16:58 (спустя 5 часов)

[Q] 

Спасибо!!! .
[Профиль]  [ЛС] 

grosboy

Флибустьер

Пост 23-Дек-2015 19:20 (спустя 2 часа 22 минуты)

[Q] 

Отличный фильм. Есть над чем поразмыслить. Автору респект!!!

_________________
Щастье есть - его не может не быть...
[Профиль]  [ЛС] 

bolobol

Корсар

110

Пост 24-Дек-2015 00:51 (спустя 5 часов)

[Q] 

ну посмотрим чё за фильм Лови бочку

_________________
[Профиль]  [ЛС] 

KoNiaL_KCC

Гроза морей

Пост 24-Дек-2015 12:05 (спустя 11 часов)

[Q] 

судя по отзывам стоит смотреть, забираю. Лови бочку
[Профиль]  [ЛС] 

realyu

Корсар

Пост 24-Дек-2015 23:41 (спустя 11 часов)

[Q] 

Как бы надпись перед фильмом "При содействии Минкультуры" должна была сразу насторожить - фильм снят для освоения средств. Поэтому на выходе - традиционное для отечественных драм УГ, да ещё и сделанное не по-киношному, а по-сериальному. Любителям поиска глубинного смысла придётся по вкусу.
[Профиль]  [ЛС] 

vredina5

Лоцман

Пост 25-Дек-2015 22:35 (спустя 22 часа)

[Q] 

да уж фильм заставляет задуматься над смыслом жизни.... только вот в фильме есть второй дубль, а в реальной жизни второго дубля нет.К слову, очень уж на слёзы тянет
[Профиль]  [ЛС] 

nikolay.412

Корсар

Пост 14-Янв-2016 19:29 (спустя 19 дней)

[Q] 

Спасибо!!!
[Профиль]  [ЛС] 

Пост 25-Янв-2016 07:47 (спустя 10 дней)

Топик был перенесен из форума Новинки (HD|DVD|BD| TV|SAT|PDTV| - Rips) в форум Российские фильмы
aleksey99
 
Показать сообщения:    
Ответить на тему

Текущее время: Сегодня 17:38

Часовой пояс: GMT + 4



Вы не можете начинать темы
Вы не можете отвечать на сообщения
Вы не можете редактировать свои сообщения
Вы не можете удалять свои сообщения
Вы не можете голосовать в опросах
Вы не можете прикреплять файлы к сообщениям
Вы не можете скачивать файлы

▼ Вниз