ML
     
  Уважаемый Гость!
Вы можете поддержать проект и зарегистрироваться у наших партнеров - онлайн-стратегия MyLands. При регистрации в игре Вы получите код, который сможете активировать после регистрации на pirat.ca и получить 1000 дублонов.

Ваш код:
21acd5966619d49ad0b90c3305467b4646cc11a8
 
     

Простая девчонка (Максим Бриус) [2015 г., Мелодрама, HDTVRip] Original (Rus)

Ответить на тему
 
Автор
Сообщение

Пост 20-Дек-2015 20:13

[Q] 

ara1205

-Простая девчонка-- Производство: Россия
Год выпуска: 2015 г.
Жанр: Мелодрама
Продолжительность: 01:42:31
Российская премьера: 1 ноября 2015
Оригинальный аудиопоток: русский-Режиссер: Максим Бриус-В ролях: Анастасия Стежко, Станислав Эрдлей, Борис Хвошнянский, Александр Абрамович, Светлана Никифорова, Галина Чернобаева, Инна Коляда, Виктор Васильев (II), Ольга Сизова, Светлана Клименко, Константин Задворный-Описание: Алена Шелестова живет и работает в большом городе. Несмотря на то, что Алена еще очень молода, она занята серьезным делом — пишет кандидатскую по истории стекольного производства, а заодно организует выставку старинных изделий из стекла.
Однажды, когда Алена едет в родной город навестить отца, она случайно знакомится с Кириллом — типичным представителем «золотой молодежи». Обаятельный и симпатичный молодой человек ведет в газете колонку светской хроники и проводит жизнь в развлечениях, растрачивая деньги своего старшего брата, Ивана Томилина.
Несмотря на разницу в жизненных приоритетах, между Аленой и Кириллом возникает симпатия. Увлекшись Аленой, Кирилл забывает, что уже обещал жениться на дочери мэра (которая от него без ума). Однако этот брак настолько важен для Ивана Томилина, что тот сам готов приударить за Аленой, лишь бы не лишиться выгодного родства. Иван решает переключить на себя внимание Алены.- -Качество видео: HDTVRip
Контейнер: AVI
Видео кодек: XviD
Аудио кодек: AC3
Видео: 720x400, 25 fps, 1714 kbps avg, 0.238 bit/pixe
Аудио: 48,0 kHz, AC3 Dolby Digital, 2 ch, ~192 kbps
Cубтитры: отсутствуют-
Общее
Полное имя : C:\Users\Roman\Pictures\Простая девчонка\Prostaya.Dev4onko.2015.HDTVRip..[pirat.ca].avi
Формат : AVI
Формат/Информация : Audio Video Interleave
Размер файла : 1,37 Гбайт
Продолжительность : 1 ч. 42 м.
Общий поток : 1915 Кбит/сек
Программа кодирования : VirtualDubMod 1.5.10.3 | www.virtualdub-fr.org || (build 2550/release)
Библиотека кодирования : VirtualDubMod build 2550/release
Видео
Идентификатор : 0
Формат : MPEG-4 Visual
Профиль формата : Advanced [email protected]
Параметр BVOP формата : 1
Параметр QPel формата : Нет
Параметр GMC формата : Без точки перехода
Параметр матрицы формата : Выборочная
Идентификатор кодека : XVID
Идентификатор кодека/Подсказка : XviD
Продолжительность : 1 ч. 42 м.
Битрейт : 1714 Кбит/сек
Ширина : 720 пикселей
Высота : 400 пикселей
Соотношение сторон : 16:9
Частота кадров : 25,000 кадров/сек
Цветовое пространство : YUV
Субдискретизация насыщенности : 4:2:0
Битовая глубина : 8 бит
Тип развёртки : Прогрессивная
Метод сжатия : С потерями
Бит/(Пиксели*Кадры) : 0.238
Размер потока : 1,23 Гбайт (89%)
Библиотека кодирования : XviD 73
Аудио
Идентификатор : 1
Формат : AC-3
Формат/Информация : Audio Coding 3
Расширение режима : CM (complete main)
Параметр Endianness формата : Big
Идентификатор кодека : 2000
Продолжительность : 1 ч. 42 м.
Вид битрейта : Постоянный
Битрейт : 192 Кбит/сек
Каналы : 2 канала
Расположение каналов : Front: L R
Частота : 48,0 КГц
Битовая глубина : 16 бит
Метод сжатия : С потерями
Размер потока : 141 Мбайт (10%)
Выравнивание : Разделение по промежуткам
Продолжительность промежутка : 40 мс. (1,00 видеокадр)
Время предзагрузки промежутка : 500 мс.
-
-
-
Download / Скачать

Хотите скачать бесплатно? Зарегистрируйтесь на сайте (ссылка на регистрацию). Pirat.ca - самый быстрый торрент трекер в рунете!

Как скачивать  ·   Что такое торрент  ·   Рейтинг и ограничения

ТАЛИ

Корсар

Пост 02-Янв-2016 01:21 (спустя 12 дней)

[Q] 

Мелодрамка сериального уровня.
[Профиль]  [ЛС] 

bolin

Флибустьер

Пост 02-Янв-2016 03:03 (спустя 1 час 42 минуты)

[Q] 

Судя по описанию полностью украли сценарий из фильма Сабрина
[Профиль]  [ЛС] 

Пост 25-Янв-2016 07:53 (спустя 23 дня)

Топик был перенесен из форума Новинки (HD|DVD|BD| TV|SAT|PDTV| - Rips) в форум Российские фильмы
aleksey99
 
Показать сообщения:    
Ответить на тему

Текущее время: Сегодня 23:22

Часовой пояс: GMT + 4



Вы не можете начинать темы
Вы не можете отвечать на сообщения
Вы не можете редактировать свои сообщения
Вы не можете удалять свои сообщения
Вы не можете голосовать в опросах
Вы не можете прикреплять файлы к сообщениям
Вы не можете скачивать файлы

▼ Вниз