ML
     
  Уважаемый Гость!
Вы можете поддержать проект и зарегистрироваться у наших партнеров - онлайн-стратегия MyLands. При регистрации в игре Вы получите код, который сможете активировать после регистрации на pirat.ca и получить 1000 дублонов.

Ваш код:
59354507ba913a0948d1a8f2e30f2e04c4cd7b9b
 
     

Пингвин нашего времени (Штефан Кромер) [2015 г., комедия, триллер, WEB-DLRip] Original (Rus)

Ответить на тему
 
Автор
Сообщение

Пост 20-Дек-2015 21:03

[Q] 

ara1205

-Пингвин нашего времени-- Производство: Россия, Германия
Год выпуска: 2015 г.
Жанр: комедия, триллер
Продолжительность: 01:28:33
Мировая премьера: 21 мая 2015
Российская премьера: 19 ноября 2015
Оригинальный аудиопоток: русский-Режиссер: Штефан Кромер-В ролях: Люси Хайнце, Алексей Гуськов, Юрий Колокольников, Антон Пампушный, Евген Баль, Мария Семенова, Елена Ласкавая, Александр Слободяник, Анатолий Горячев, Сергей Греков-Описание: Молодая немка Виня одержима идеей найти своего возлюбленного Андрея, который внезапно исчез. В поисках Андрея она приезжает на Крайний Север России. Случайность ли, что на своем пути она встречает таинственного миллионера Всеволода Старыча, одержимого странными и даже опасными идеями?…- -Качество видео: WEB-DLRip
Контейнер: AVI
Видео кодек: XviD
Аудио кодек: AC3
Видео: 720x304, 25 fps, 2005 kbps avg, 0.366 bit/pixe
Аудио: 48,0 kHz, AC3 Dolby Digital, 2 ch, ~192 kbps
Cубтитры: отсутствуют-
Общее
Полное имя : C:\Users\Roman\Pictures\Пингвин нашего времени\Pingviny.Nashego.Vremeni.2015.WEB-DLRip.[pirat.ca].avi
Формат : AVI
Формат/Информация : Audio Video Interleave
Размер файла : 1,37 Гбайт
Продолжительность : 1 ч. 28 м.
Общий поток : 2207 Кбит/сек
Программа кодирования : VirtualDubMod 1.5.10.3 | www.virtualdub-fr.org || (build 2550/release)
Библиотека кодирования : VirtualDubMod build 2550/release
Видео
Идентификатор : 0
Формат : MPEG-4 Visual
Профиль формата : Advanced [email protected]
Параметр BVOP формата : 2
Параметр QPel формата : Нет
Параметр GMC формата : Без точки перехода
Параметр матрицы формата : Default (MPEG)
Идентификатор кодека : XVID
Идентификатор кодека/Подсказка : XviD
Продолжительность : 1 ч. 28 м.
Битрейт : 2005 Кбит/сек
Ширина : 720 пикселей
Высота : 304 пикселя
Соотношение сторон : 2,35:1
Частота кадров : 25,000 кадров/сек
Цветовое пространство : YUV
Субдискретизация насыщенности : 4:2:0
Битовая глубина : 8 бит
Тип развёртки : Прогрессивная
Метод сжатия : С потерями
Бит/(Пиксели*Кадры) : 0.366
Размер потока : 1,24 Гбайт (91%)
Библиотека кодирования : XviD 1.2.1 (UTC 2008-12-04)
Аудио
Идентификатор : 1
Формат : AC-3
Формат/Информация : Audio Coding 3
Расширение режима : CM (complete main)
Параметр Endianness формата : Big
Идентификатор кодека : 2000
Продолжительность : 1 ч. 28 м.
Вид битрейта : Постоянный
Битрейт : 192 Кбит/сек
Каналы : 2 канала
Расположение каналов : Front: L R
Частота : 48,0 КГц
Битовая глубина : 16 бит
Метод сжатия : С потерями
Размер потока : 122 Мбайт (9%)
Выравнивание : Разделение по промежуткам
Продолжительность промежутка : 40 мс. (1,00 видеокадр)
Время предзагрузки промежутка : 500 мс.
-
-
Download / Скачать

Хотите скачать бесплатно? Зарегистрируйтесь на сайте (ссылка на регистрацию). Pirat.ca - самый быстрый торрент трекер в рунете!

Как скачивать  ·   Что такое торрент  ·   Рейтинг и ограничения

Skat.56

Гроза морей

448

Пост 21-Дек-2015 02:01 (спустя 4 часа)

[Q] 

Фильм ситуация...
Нудноват для триллера грустноват для комедии...
Но посмотреть можно
[Профиль]  [ЛС] 

hevard

Гроза морей

2109

Пост 21-Дек-2015 17:21 (спустя 15 часов)

[Q] 

Кто смотрел, расскажите, в чём связь между крайним севером и пингвинами? (которые, кстати не живут на крайнем севере... они живут на крайнем юге)

_________________
-Я старый пират и не знаю слов лицензионного соглашения...
[Профиль]  [ЛС] 

Artist fan

Штурман

Пост 22-Дек-2015 20:53 (спустя 1 день 3 часа)

[Q] 

Видимо режиссер муд&k
[Профиль]  [ЛС] 

Vintorezov REG 39

Легенда

176

Пост 22-Дек-2015 22:56 (спустя 2 часа 3 минуты)

[Q] 

Фильм на раз. Спасибо за труды .
[Профиль]  [ЛС] 

rebel2

Корсар

Пост 23-Дек-2015 00:49 (спустя 1 час 52 минуты)

[Q] 

Спасибо!
[Профиль]  [ЛС] 

congress

Морской Волк

75

Пост 25-Дек-2015 00:00 (спустя 1 день 23 часа)

[Q] 

рискну посмотреть что наши наваяли...
спасибо за труды)
Лови бочку

_________________
Котлеты – самые лучшие пирожки. У них и внутри мясо, и вместо теста – тоже мясо.
[Профиль]  [ЛС] 

ZhekasCat

Морской Волк

35

Пост 03-Янв-2016 09:50 (спустя 9 дней)

[Q] 

Спасибо!!! С удовольствием посмотрю,тем более с Гуськовым.
[Профиль]  [ЛС] 

Пост 25-Янв-2016 07:55 (спустя 21 день)

Топик был перенесен из форума Новинки (HD|DVD|BD| TV|SAT|PDTV| - Rips) в форум Российские фильмы
aleksey99
 
Показать сообщения:    
Ответить на тему

Текущее время: Сегодня 16:10

Часовой пояс: GMT + 4



Вы не можете начинать темы
Вы не можете отвечать на сообщения
Вы не можете редактировать свои сообщения
Вы не можете удалять свои сообщения
Вы не можете голосовать в опросах
Вы не можете прикреплять файлы к сообщениям
Вы не можете скачивать файлы

▼ Вниз