ML
     
  Уважаемый Гость!
Вы можете поддержать проект и зарегистрироваться у наших партнеров - онлайн-стратегия MyLands. При регистрации в игре Вы получите код, который сможете активировать после регистрации на pirat.ca и получить 1000 дублонов.

Ваш код:
4399ab8611ee7f8a22949d2ee7634160dd2db7e0
 
     

SOS, Дед Мороз или Все сбудется! (Арман Геворгян) [2015 г., комедия, семейный, WEB-DLRip] Original (RUS)[iTunes]

Ответить на тему
 
Автор
Сообщение

Пост 31-Дек-2015 09:00

[Q] 

aleksey99

--SOS, Дед Мороз или Все сбудется!-- Производство: Россия
Год выпуска: 2015 г.
Жанр: комедия, семейный
Продолжительность: 01:26:59--Российская премьера: 10 декабря 2015, «Каропрокат»--Режиссер: Арман Геворгян--В ролях: Михаил Беспалов, Софья Спектор, Анатолий Белый, Алёна Бабенко, Дмитрий Назаров, Андрей Бедняков, Оксана Акиньшина, Алексей Бардуков, Полина Максимова, Сергей Рост--Описание: Света отчаянно хочет, чтобы ее родители помирились. Она верит, что эту мечту обязательно исполнит Дед Мороз, только стоит найти его и попросить об этом. Как же кстати он встречается Свете как раз накануне Нового года. Только вот девочка приняла за Деда Мороза переодетого мошенника и обаятельного афериста Мышкина. Теперь эта парочка на пути к исполнению своих желаний вовлечет в круговорот новогодних приключений еще десяток ни в чем неповинных людей, у которых теперь тоже появится надежда встретить эту новогоднюю ночь счастливыми.-- --Качество видео: WEB-DLRip
Контейнер: AVI
Видео кодек: XviD
Аудио кодек: AC3
Видео: 720x304 (2.37:1), 25 fps, XviD build 50 ~1852 kbps avg, 0.34 bit/pixel
Аудио: 48 kHz, AC3 Dolby Digital, 3/2 (L,C,R,l,r) + LFE ch, ~384 kbps
Cубтитры: отсутствуют
Общее
Полное имя : H:\Torrent2\C0C.DeD.M0P03.2015.O.WEBDLRip.avi
Формат : AVI
Формат/Информация : Audio Video Interleave
Размер файла : 1,36 Гбайт
Продолжительность : 1 ч. 26 м.
Общий поток : 2247 Кбит/сек
Программа кодирования : VirtualDubMod 1.5.10.3 | www.virtualdub-fr.org || (build 2550/release)
Библиотека кодирования : VirtualDubMod build 2550/release
Видео
Идентификатор : 0
Формат : MPEG-4 Visual
Профиль формата : Advanced [email protected]
Параметр BVOP формата : 2
Параметр QPel формата : Нет
Параметр GMC формата : Без точки перехода
Параметр матрицы формата : Default (MPEG)
Идентификатор кодека : XVID
Идентификатор кодека/Подсказка : XviD
Продолжительность : 1 ч. 26 м.
Битрейт : 1853 Кбит/сек
Ширина : 720 пикселей
Высота : 304 пикселя
Соотношение сторон : 2,35:1
Частота кадров : 25,000 кадров/сек
Цветовое пространство : YUV
Субдискретизация насыщенности : 4:2:0
Битовая глубина : 8 бит
Тип развёртки : Прогрессивная
Метод сжатия : С потерями
Бит/(Пиксели*Кадры) : 0.339
Размер потока : 1,13 Гбайт (82%)
Библиотека кодирования : XviD 1.2.1 (UTC 2008-12-04)
Аудио
Идентификатор : 1
Формат : AC-3
Формат/Информация : Audio Coding 3
Расширение режима : CM (complete main)
Параметр Endianness формата : Big
Идентификатор кодека : 2000
Продолжительность : 1 ч. 26 м.
Вид битрейта : Постоянный
Битрейт : 384 Кбит/сек
Каналы : 6 каналов
Расположение каналов : Front: L C R, Side: L R, LFE
Частота : 48,0 КГц
Метод сжатия : С потерями
Размер потока : 239 Мбайт (17%)
Выравнивание : Разделение по промежуткам
Продолжительность промежутка : 40 мс. (1,00 видеокадр)
Время предзагрузки промежутка : 500 мс.
Трейлер
Download / Скачать

Хотите скачать бесплатно? Зарегистрируйтесь на сайте (ссылка на регистрацию). Pirat.ca - самый быстрый торрент трекер в рунете!

Как скачивать  ·   Что такое торрент  ·   Рейтинг и ограничения

DHARMEEDONT

Флибустьер

Пост 31-Дек-2015 09:44 (спустя 44 минуты)

[Q] 

очередной рашн трэш?
[Профиль]  [ЛС] 

Dmitriy1881

Корсар

Пост 31-Дек-2015 09:53 (спустя 8 минут)

[Q] 

Спасибо, посмотрим!!
[Профиль]  [ЛС] 

XMax

Флибустьер

Пост 31-Дек-2015 12:26 (спустя 2 часа 33 минуты)

[Q] 

Спасибо, как раз к новому году.
Автору респект!!! Пиратка рулит!
[Профиль]  [ЛС] 

Alexlogin

Гроза морей

105

Пост 31-Дек-2015 12:32 (спустя 5 минут)

[Q] 

Спасибо как раз его искал
[Профиль]  [ЛС] 

sergey718

Корсар

Пост 31-Дек-2015 13:46 (спустя 1 час 14 минут)

[Q] 

спасибо! буде что смотреть.
[Профиль]  [ЛС] 

grosboy

Флибустьер

Пост 31-Дек-2015 13:59 (спустя 13 минут)

[Q] 

Класс! Само-то на новый год. Спасибо!!!

_________________
Щастье есть - его не может не быть...
[Профиль]  [ЛС] 

Jey1980

Морской Волк

Пост 31-Дек-2015 14:48 (спустя 48 минут)

[Q] 

Спасибо, заценим! К Новому году, кстати))
p.s. Всех с Наступающим!
[Профиль]  [ЛС] 

лысый 777

Морской Волк

Пост 31-Дек-2015 19:44 (спустя 4 часа)

[Q] 

Всех с наступающим !!! Автору респект!!!
[Профиль]  [ЛС] 

DesperadoAV

Шкипер

Пост 31-Дек-2015 20:07 (спустя 23 минуты)

[Q] 

Автору респект!!! очередная новогодняя сказка?
[Профиль]  [ЛС] 

Gari4

Флибустьер

Пост 31-Дек-2015 22:59 (спустя 2 часа 52 минуты)

[Q] 

Отличная, добрая, новогодняя комедия (да русская, но хуже не становится от этого);
Отличная игра актеров.
Отличный размер у героини сериала Папины Дочки.
Отличное семейное кино! Всем качать!!! Лови бочку
[Профиль]  [ЛС] 

Maks_e

Корсар

69

Пост 01-Янв-2016 06:20 (спустя 7 часов)

[Q] 

Спасибо!!! Лови бочку
[Профиль]  [ЛС] 

ТАЛИ

Корсар

Пост 01-Янв-2016 19:22 (спустя 13 часов)

[Q] 

Незамысловатая комедия, насквозь предсказуемая и шаблонная. Но яркая, пропитанная новогодним настроением и абсолютно ненапряжная - то что надо, чтоб отдохнуть и отключить мозги. Самое главное, что девочка играет довольно хорошо, а то у нас иногда такой детский кастинг, что прям стыдно
[Профиль]  [ЛС] 

kinstintin

Гроза морей

Пост 01-Янв-2016 22:36 (спустя 3 часа)

[Q] 

Посмотрим, посмотрим очередной шедевр нашего кинематографа
[Профиль]  [ЛС] 

grosboy

Флибустьер

Пост 02-Янв-2016 10:26 (спустя 11 часов)

[Q] 

Фильм отличный. Простенький с несложным сюжетом, но наполненный добротой и позитивом. С семьёй глянуть то что надо. Всем качать!!!

_________________
Щастье есть - его не может не быть...
[Профиль]  [ЛС] 

italiano711

Гроза морей

Пост 04-Янв-2016 00:26 (спустя 1 день 13 часов)

[Q] 

А комедии и должны быть легкими.)))
Посмотрю и отпишусь...
[Профиль]  [ЛС] 

ntvsx

Шкипер

Пост 04-Янв-2016 17:14 (спустя 16 часов)

[Q] 

Хороший фильм. "Отдыхающий", как говорит моя теща.
[Профиль]  [ЛС] 

nokia_series

Корсар

Пост 05-Янв-2016 14:58 (спустя 21 час)

[Q] 

рашн трэшн... блин ну когда у нас начнуть снимать фильмы не для дебилов =( пичалька.
[Профиль]  [ЛС] 

polyk

Флибустьер

Пост 06-Янв-2016 17:02 (спустя 1 день 2 часа)

[Q] 

спасибо посмотрим!!!!!!!
[Профиль]  [ЛС] 

AndreyAL

Штурман

Пост 09-Янв-2016 16:08 (спустя 2 дня 23 часа)

[Q] 

Спасибо!
Взглянем cx
[Профиль]  [ЛС] 

maksmuravjov

Шкипер

Пост 28-Янв-2016 21:50 (спустя 19 дней)

[Q] 

глянем
Спасибо!!!
[Профиль]  [ЛС] 

Саня 525

Морской Волк

Пост 31-Янв-2016 15:22 (спустя 2 дня 17 часов)

[Q] 

Мне не понравился....
Трафик потрачен зря!
[Профиль]  [ЛС] 

italiano711

Гроза морей

Пост 31-Янв-2016 21:39 (спустя 6 часов)

[Q] 

Добрая российская комедия.
[Профиль]  [ЛС] 

rebel2

Корсар

Пост 01-Фев-2016 00:27 (спустя 2 часа 48 минут)

[Q] 

Спасибо!
[Профиль]  [ЛС] 

Пост 05-Фев-2016 07:30 (спустя 4 дня)

Топик был перенесен из форума Новинки (HD|DVD|BD| TV|SAT|PDTV| - Rips) в форум Российские фильмы
aleksey99
 

lexaspirit

Пост 09-Фев-2016 12:00 (спустя 8 дней)

[Q] 

Новогодние фильм который напоминает ёлки. Ну в принципе посмотреть можно

_________________
-------------------- ----------------------
[Профиль]  [ЛС] 
Показать сообщения:    
Ответить на тему

Текущее время: Сегодня 10:45

Часовой пояс: GMT + 4



Вы не можете начинать темы
Вы не можете отвечать на сообщения
Вы не можете редактировать свои сообщения
Вы не можете удалять свои сообщения
Вы не можете голосовать в опросах
Вы не можете прикреплять файлы к сообщениям
Вы не можете скачивать файлы

▼ Вниз