ML
     
  Уважаемый Гость!
Вы можете поддержать проект и зарегистрироваться у наших партнеров - онлайн-стратегия MyLands. При регистрации в игре Вы получите код, который сможете активировать после регистрации на pirat.ca и получить 1000 дублонов.

Ваш код:
93dbf9fbdfa06c41d3b5a2c3921149ba36168c41
 
     

Рэкетир 2 (Акан Сатаев) [2015 г., боевик, драма, криминал, WEBRip] Original (RUS)

Ответить на тему
 
Автор
Сообщение

Пост 03-Янв-2016 19:26

[Q] 

aleksey99

--Рэкетир 2-- Производство: Казахстан
Год выпуска: 2015 г.
Жанр: боевик, драма, криминал
Продолжительность: 01:51:52--Мировая премьера: 28 мая 2015--Режиссер: Акан Сатаев--В ролях: Аружан Джазильбекова, Асель Сагатова, Аян Утепберген, Фархад Абдраимов, Саят Исембаев, Жан Байжанбаев, Азамат Сатыбалды, Дастен Шакиров--Описание: Судьба дарит главному герою второй шанс. Все считали его погибшим. С момента гибели Руслана прошло уже десять лет. Саян — преданный помощник Руслана — принял решение отойти от дел и начать жизнь с чистого листа. Когда к нему в дом пришел младший брат погибшего начальника Була, Саян насторожился. И не зря. Була хотел мести, но Саян не готов возвращаться к прошлому. Тут-то и начинается самое интересное…-- --Качество видео: WEBRip
Контейнер: AVI
Видео кодек: XviD
Аудио кодек: AC3
Видео: 720x304 (2.37:1), 25 fps, XviD build 50 ~1611 kbps avg, 0.29 bit/pixel
Аудио: 44.1 kHz, AC3 Dolby Digital, 2/0 (L,R) ch, ~128 kbps
Cубтитры: отсутствуют
Общее
Полное имя : H:\Torrent2\Reketir.II.2015.O.WEBRip.14OOMB.avi
Формат : AVI
Формат/Информация : Audio Video Interleave
Размер файла : 1,37 Гбайт
Продолжительность : 1 ч. 51 м.
Общий поток : 1749 Кбит/сек
Программа кодирования : VirtualDubMod 1.5.10.2 (build 2540/release)
Библиотека кодирования : VirtualDubMod build 2540/release
Видео
Идентификатор : 0
Формат : MPEG-4 Visual
Профиль формата : Advanced [email protected]
Параметр BVOP формата : 2
Параметр QPel формата : Нет
Параметр GMC формата : Без точки перехода
Параметр матрицы формата : Default (MPEG)
Идентификатор кодека : XVID
Идентификатор кодека/Подсказка : XviD
Продолжительность : 1 ч. 51 м.
Битрейт : 1612 Кбит/сек
Ширина : 720 пикселей
Высота : 304 пикселя
Соотношение сторон : 2,35:1
Частота кадров : 25,000 кадров/сек
Цветовое пространство : YUV
Субдискретизация насыщенности : 4:2:0
Битовая глубина : 8 бит
Тип развёртки : Прогрессивная
Метод сжатия : С потерями
Бит/(Пиксели*Кадры) : 0.295
Размер потока : 1,26 Гбайт (92%)
Библиотека кодирования : XviD 1.2.1 (UTC 2008-12-04)
Аудио
Идентификатор : 1
Формат : AC-3
Формат/Информация : Audio Coding 3
Расширение режима : CM (complete main)
Параметр Endianness формата : Big
Идентификатор кодека : 2000
Продолжительность : 1 ч. 51 м.
Вид битрейта : Постоянный
Битрейт : 128 Кбит/сек
Каналы : 2 канала
Расположение каналов : Front: L R
Частота : 44,1 КГц
Частота кадров : 28,711 кадров/сек (1536 spf)
Метод сжатия : С потерями
Размер потока : 102 Мбайт (7%)
Выравнивание : Разделение по промежуткам
Продолжительность промежутка : 40 мс. (1,00 видеокадр)
Время предзагрузки промежутка : 500 мс.
Трейлер
Download / Скачать

Хотите скачать бесплатно? Зарегистрируйтесь на сайте (ссылка на регистрацию). Pirat.ca - самый быстрый торрент трекер в рунете!

Как скачивать  ·   Что такое торрент  ·   Рейтинг и ограничения

psvcrazy

Морской Волк

Пост 03-Янв-2016 19:39 (спустя 12 минут)

[Q] 

первый понравился. Посмотрим второй.
[Профиль]  [ЛС] 

alex_dry

Гроза морей

Пост 03-Янв-2016 20:21 (спустя 42 минуты)

[Q] 

Спасибо за релиз!
[Профиль]  [ЛС] 

alex198408

Морской Волк

Пост 04-Янв-2016 02:56 (спустя 6 часов)

[Q] 

да первая класс глянем вторую Спасибо!!! Супер!
[Профиль]  [ЛС] 

hevard

Гроза морей

2109

Пост 04-Янв-2016 16:32 (спустя 13 часов)

[Q] 

726590первый понравился. Посмотрим второй.
Ого! Тут ещё и первый есть? )))) Надо посмотреть на Казахстанский Болливуд...

_________________
-Я старый пират и не знаю слов лицензионного соглашения...
[Профиль]  [ЛС] 

serfer_st

Штурман

Пост 04-Янв-2016 21:56 (спустя 5 часов)

[Q] 

726767
726590первый понравился. Посмотрим второй.
Ого! Тут ещё и первый есть? )))) Надо посмотреть на Казахстанский Болливуд...
А фильм, кстати, очень не плохой.

_________________
serfer_str на "старой" пиратке
[Профиль]  [ЛС] 

Alexlogin

Гроза морей

105

Пост 04-Янв-2016 22:35 (спустя 39 минут)

[Q] 

Первая часть запомнилась с удовольствием посмотрю вторую
[Профиль]  [ЛС] 

давыденков

Штурман

Пост 09-Янв-2016 12:37 (спустя 4 дня)

[Q] 

Респект казахскому кинематографу !COOL! Супер!
[Профиль]  [ЛС] 

Greekusss

Лоцман

Пост 10-Янв-2016 02:30 (спустя 13 часов)

[Q] 

А вот первый не нашёл((
[Профиль]  [ЛС] 

kronzvk

Шкипер

Пост 17-Янв-2016 21:43 (спустя 7 дней)

[Q] 

Фильм является логическим завершением истории, раскрывает порочность существующей мировой системы, в которой деньги могут решать всё, в которой благополучие одних людей построено на крови других людей и никакое правосудие неспособно что-либо изменить при существовании такой системы ценностей в обществе.
Казахский кинематограф в очередной раз показал, что имеет огромный потенциал. Для понимания и объективной оценки событий необходим тщательный анализ обстоятельств и событий первого фильма, только при таком условии зритель сможет оценить истинное содержание и мысль автора.
Фильм не является и не должен был являться бандитским боевиком...В нем раскрываются события, произошедшие в разных эпохах постсоветского пространства, но связь между этими эпохами будет существовать всегда.
[Профиль]  [ЛС] 
Показать сообщения:    
Ответить на тему

Текущее время: Сегодня 20:20

Часовой пояс: GMT + 4



Вы не можете начинать темы
Вы не можете отвечать на сообщения
Вы не можете редактировать свои сообщения
Вы не можете удалять свои сообщения
Вы не можете голосовать в опросах
Вы не можете прикреплять файлы к сообщениям
Вы не можете скачивать файлы

▼ Вниз