ML
     
  Уважаемый Гость!
Вы можете поддержать проект и зарегистрироваться у наших партнеров - онлайн-стратегия MyLands. При регистрации в игре Вы получите код, который сможете активировать после регистрации на pirat.ca и получить 1000 дублонов.

Ваш код:
2fd4e750dd89cae3a36ea360f2b345ccfeb562d3
 
     

Наследники (Владимир Хотиненко) [2015 г., драма, WEB-DLRip] Original (RUS)

Ответить на тему
 
Автор
Сообщение

Пост 05-Янв-2016 18:15

[Q] 

aleksey99

--Наследники-- Производство: Россия, ДA-Cтудия, Рой
Год выпуска: 2015 г.
Жанр: драма
Продолжительность: 01:43:04--Мировая премьера: 19 сентября 2015
Российская премьера: 5 ноября 2015, «Ливандия Энтертейнмент»--Режиссер: Владимир Хотиненко--В ролях: Леонид Бичевин, Александр Балуев, Анатолий Белый, Агриппина Стеклова, Александр Коротков, Алла Юганова, Наталья Курдюбова, Алексей Кирсанов, Сергей Качанов, Артур Мухамадияров--Описание: Большая часть действия фильма происходит в студии ток-шоу, где политолог, патриот, попдива и другие персонажи во главе с ведущим обсуждают фигуру и наследие преподобного Сергия Радонежского. В разгар записи Ведущий неожиданно узнает, что его программу закрывают. Решив, что терять ему нечего, Ведущий идёт ва-банк и стремится прежде всего «разоблачить» — церковь, власть, своих собеседников… Но эффект оказывается совсем не тот, на который он рассчитывал. В пылу оживленной и даже яростной полемики мы начинаем прозревать подлинного Сергия Радонежского, а в эпизодах истории как в зеркале угадываем проблемы современной России…-- --Качество видео: WEB-DLRip
Контейнер: AVI
Видео кодек: XviD
Аудио кодек: AC3
Видео: 720x304 (2.37:1), 25 fps, XviD build 50 ~1699 kbps avg, 0.31 bit/pixel
Аудио: 48 kHz, AC3 Dolby Digital, 2/0 (L,R) ch, ~192 kbps
Cубтитры: отсутствуют
Общее
Полное имя : H:\Torrent2\Na7LedN1k1.2015.O.WEB-DLRip.1400MB.avi
Формат : AVI
Формат/Информация : Audio Video Interleave
Размер файла : 1,37 Гбайт
Продолжительность : 1 ч. 43 м.
Общий поток : 1901 Кбит/сек
Программа кодирования : VirtualDubMod 1.5.10.3 | www.virtualdub-fr.org || (build 2550/release)
Библиотека кодирования : VirtualDubMod build 2550/release
Видео
Идентификатор : 0
Формат : MPEG-4 Visual
Профиль формата : Advanced [email protected]
Параметр BVOP формата : 2
Параметр QPel формата : Нет
Параметр GMC формата : Без точки перехода
Параметр матрицы формата : Default (MPEG)
Идентификатор кодека : XVID
Идентификатор кодека/Подсказка : XviD
Продолжительность : 1 ч. 43 м.
Битрейт : 1700 Кбит/сек
Ширина : 720 пикселей
Высота : 304 пикселя
Соотношение сторон : 2,35:1
Частота кадров : 25,000 кадров/сек
Цветовое пространство : YUV
Субдискретизация насыщенности : 4:2:0
Битовая глубина : 8 бит
Тип развёртки : Прогрессивная
Метод сжатия : С потерями
Бит/(Пиксели*Кадры) : 0.311
Размер потока : 1,22 Гбайт (89%)
Библиотека кодирования : XviD 1.2.1 (UTC 2008-12-04)
Аудио
Идентификатор : 1
Формат : AC-3
Формат/Информация : Audio Coding 3
Расширение режима : CM (complete main)
Параметр Endianness формата : Big
Идентификатор кодека : 2000
Продолжительность : 1 ч. 43 м.
Вид битрейта : Постоянный
Битрейт : 192 Кбит/сек
Каналы : 2 канала
Расположение каналов : Front: L R
Частота : 48,0 КГц
Частота кадров : 31,250 кадров/сек (1536 spf)
Метод сжатия : С потерями
Размер потока : 142 Мбайт (10%)
Выравнивание : Разделение по промежуткам
Продолжительность промежутка : 40 мс. (1,00 видеокадр)
Время предзагрузки промежутка : 500 мс.
Трейлер
Внимание присутствуют вставки голосовой и текстовой рекламы.
Download / Скачать

Хотите скачать бесплатно? Зарегистрируйтесь на сайте (ссылка на регистрацию). Pirat.ca - самый быстрый торрент трекер в рунете!

Как скачивать  ·   Что такое торрент  ·   Рейтинг и ограничения

янка-сан

Гроза морей

Пост 05-Янв-2016 23:15 (спустя 4 часа)

[Q] 

кто нибудь посмотрел? отпишитесь, плиз
[Профиль]  [ЛС] 

ktest0

Корсар

33

Пост 05-Янв-2016 23:28 (спустя 12 минут)

[Q] 

РПЦ кинцо сваяло?!
Догмы и мракобесие в массы!
[Профиль]  [ЛС] 

ketzer

Морской Волк

Пост 05-Янв-2016 23:48 (спустя 19 минут)

[Q] 

Хотиненко лижет на два языка.
[Профиль]  [ЛС] 

medved218

Корсар

Пост 06-Янв-2016 02:05 (спустя 2 часа 17 минут)

[Q] 

37 скачавших, стоит ли просмотра данное ваяние, с актёрами из женских "киношек" ?
[Профиль]  [ЛС] 

гегель

Лоцман

Пост 06-Янв-2016 10:47 (спустя 8 часов)

[Q] 

РПЦ там не причем. Фильм имеет определенный смысл, но его не просто уловить. Фильм на любителя, неширпотреб. Большинству он не понравится. Если хотите под фильмец расслабиться, как под боевик - это не то кино
[Профиль]  [ЛС] 

grosboy

Флибустьер

Пост 14-Янв-2016 11:57 (спустя 8 дней)

[Q] 

Фильм не понравился. Хотя он на любителя. Смысл прослеживается но слишком тонко. На любителя Не стоит тратить время...

_________________
Щастье есть - его не может не быть...
[Профиль]  [ЛС] 

seregarus

Матрос

Пост 24-Янв-2016 19:28 (спустя 10 дней)

[Q] 

интересно, один только посмотрел? Ой как стыдно-то...
[Профиль]  [ЛС] 

Пост 11-Фев-2016 20:01 (спустя 18 дней)

Топик был перенесен из форума Новинки (HD|DVD|BD| TV|SAT|PDTV| - Rips) в форум Российские фильмы
aleksey99
 
Показать сообщения:    
Ответить на тему

Текущее время: Сегодня 14:09

Часовой пояс: GMT + 4



Вы не можете начинать темы
Вы не можете отвечать на сообщения
Вы не можете редактировать свои сообщения
Вы не можете удалять свои сообщения
Вы не можете голосовать в опросах
Вы не можете прикреплять файлы к сообщениям
Вы не можете скачивать файлы

▼ Вниз