ML
     
  Уважаемый Гость!
Вы можете поддержать проект и зарегистрироваться у наших партнеров - онлайн-стратегия MyLands. При регистрации в игре Вы получите код, который сможете активировать после регистрации на pirat.ca и получить 1000 дублонов.

Ваш код:
aec9a4a936117fb450ba69e519991a0465404b1d
 
     

Иерей-сан. Исповедь самурая (Егор Баранов) [2015 г., боевик, драма, HDRip] Original (Rus) [Лицензия]

Ответить на тему
 
Автор
Сообщение

Пост 16-Янв-2016 21:52

[Q] 

ara1205

-Иерей-сан. Исповедь самурая-- Производство: Россия
Год выпуска: 2015 г.
Жанр: боевик, драма
Продолжительность: 01:37:46
Мировая премьера: 26 ноября 2015
Оригинальный аудиопоток: русский-Режиссер: Егор Баранов-В ролях: Кэри-Хироюки Тагава, Пётр Фёдоров, Иван Охлобыстин, Игорь Жижикин, Петр Мамонов, Дарья Екамасова, Любовь Толкалина, Людмила Чурсина, Надежда Маркина, Алина Бабак-Описание: Главный герой — Такуро Накамура, в крещении отец Николай — священник японской православной церкви, в прошлом профессиональный спортсмен, а в настоящем — родной брат главы одного из влиятельных кланов якудза. Однажды он не смог пройти мимо насилия и защитил обычную девушку, вступив в схватку с людьми из враждебной брату группировки. Война кланов якудза неизбежна. Став заложником криминальных «разборок», священник подвергается смертельной опасности и его отправляют служить в российское село Глубокое, раздираемое внутренними конфликтами. Это место крайне интересно Андрею Нелюбину для земельных махинаций, и он готов пойти на все, чтобы жители покинули родные земли. Отец Николай объединяет сельчан вокруг полуразрушенной церкви. Восстанавливая храм, они возродили мир между собой и приняли вызов. Началась уже совсем другая война…- -Качество видео: HDRip
Контейнер: AVI
Видео кодек: XviD
Аудио кодек: AC3
Видео: 720x304, 25,000 fps, 1544 kbps avg, 0.282 bit/pixel
Аудио: 48 kHz, AC3 Dolby Digital, 3/2 (L,C,R,l,r) + LFE ch, ~448 kbps
Cубтитры: отсутствуют-
Общее
Полное имя : C:\Users\Roman\Pictures\Иерей-сан. Исповедь самурая\Новая папка\IereY.SAN.2O15.O.HDRip.[pirat.ca].avi
Формат : AVI
Формат/Информация : Audio Video Interleave
Размер файла : 1,37 Гбайт
Продолжительность : 1 ч. 37 м.
Общий поток : 2002 Кбит/сек
Программа кодирования : VirtualDubMod 1.5.10.2 (build 2540/release)
Библиотека кодирования : VirtualDubMod build 2540/release
Видео
Идентификатор : 0
Формат : MPEG-4 Visual
Профиль формата : Advanced [email protected]
Параметр BVOP формата : 2
Параметр QPel формата : Нет
Параметр GMC формата : Без точки перехода
Параметр матрицы формата : Default (MPEG)
Идентификатор кодека : XVID
Идентификатор кодека/Подсказка : XviD
Продолжительность : 1 ч. 37 м.
Битрейт : 1544 Кбит/сек
Ширина : 720 пикселей
Высота : 304 пикселя
Соотношение сторон : 2,35:1
Частота кадров : 25,000 кадров/сек
Цветовое пространство : YUV
Субдискретизация насыщенности : 4:2:0
Битовая глубина : 8 бит
Тип развёртки : Прогрессивная
Метод сжатия : С потерями
Бит/(Пиксели*Кадры) : 0.282
Размер потока : 1,05 Гбайт (77%)
Библиотека кодирования : XviD 1.2.1 (UTC 2008-12-04)
Аудио
Идентификатор : 1
Формат : AC-3
Формат/Информация : Audio Coding 3
Расширение режима : CM (complete main)
Параметр Endianness формата : Big
Идентификатор кодека : 2000
Продолжительность : 1 ч. 37 м.
Вид битрейта : Постоянный
Битрейт : 448 Кбит/сек
Каналы : 6 каналов
Расположение каналов : Front: L C R, Side: L R, LFE
Частота : 48,0 КГц
Битовая глубина : 16 бит
Метод сжатия : С потерями
Размер потока : 313 Мбайт (22%)
Выравнивание : Разделение по промежуткам
Продолжительность промежутка : 40 мс. (1,00 видеокадр)
Время предзагрузки промежутка : 500 мс.
-
-
Download / Скачать

Хотите скачать бесплатно? Зарегистрируйтесь на сайте (ссылка на регистрацию). Pirat.ca - самый быстрый торрент трекер в рунете!

Как скачивать  ·   Что такое торрент  ·   Рейтинг и ограничения

Sailor

Морской Волк

Пост 18-Янв-2016 14:38 (спустя 1 день 16 часов)

[Q] 

Качну, чтобы поржать над этим бредом
[Профиль]  [ЛС] 

AlienAmigo

Шкипер

Пост 18-Янв-2016 20:35 (спустя 5 часов)

[Q] 

Ржать там особо не над чем.
Только один вопрос: РАДИ ЧЕГО ВСЁ ЭТО СНИМАЛИ?!
Трафик потрачен зря!
[Профиль]  [ЛС] 

Spectroom

Лоцман

Пост 19-Янв-2016 00:16 (спустя 3 часа)

[Q] 

Мне фильм понравился, заставляет задуматься о многих вещах. Тем, кто ищет боевик с драками и спецэффектами качать не стоит.

_________________
[Профиль]  [ЛС] 

E-RTY

Флибустьер

30

Пост 19-Янв-2016 14:12 (спустя 13 часов)

[Q] 

гремачая смесь, спесь, а черт качаю!
[Профиль]  [ЛС] 

Полтос

Флибустьер

Пост 27-Янв-2016 21:57 (спустя 8 дней)

[Q] 

С удовольствием посмотрел фильм... Досадно видеть, что в русскую глубинку православная духовность приходит из Японии, да ещё и через бывшего якудзу... С другой стороны, порадовало, что для нас не всё потеряно и при должном воспитании мы можем вновь обрести утраченную гармонию личности, семьи и общества, чего так не хватает России периода дикого капитализма. Это не экшен, поэтому - кино не для всех. Не дотягивает он и до "Острова", хотя какие-то общие черты присутствуют. Нравится кино о духовности, России и поиске смысла жизни - стоит смотреть. Остальным - мимо.

_________________
Первый закон Прапорщика: Всё что поднимаемо - относительно!)
[Профиль]  [ЛС] 

Евгений Чередников

Морской Волк

Пост 30-Янв-2016 12:52 (спустя 2 дня 14 часов)

[Q] 

Глянем, может что то путное,жаль киноматограф за 90ые убили напрочь и шушеру в актёры понабрали так бы блок бастеры штамповали бы.А тут чтобы привлечь к отечественному фильму нужно просто не отечественного актёра показать. Да иностранцы в последнее время тоже хлам всякий выпускают.Редко что нормальное выходит.

_________________
[Профиль]  [ЛС] 

yam672

Корсар

Пост 12-Фев-2016 12:27 (спустя 12 дней)

[Q] 

посмотрим..... Интересно Хироюки в новом облике увидеть... мнения неоднозначные.... Раздающему респект!
[Профиль]  [ЛС] 

dambrina

Флибустьер

Пост 29-Фев-2016 22:28 (спустя 17 дней)

[Q] 

Спасибо!!! посмотрим
[Профиль]  [ЛС] 

AlienAmigo

Шкипер

Пост 01-Мар-2016 23:00 (спустя 1 день)

[Q] 

православненько так...
P.S.: православные якудза, банзай!!!
Кто здеся?
[Профиль]  [ЛС] 
Показать сообщения:    
Ответить на тему

Текущее время: Сегодня 02:24

Часовой пояс: GMT + 4



Вы не можете начинать темы
Вы не можете отвечать на сообщения
Вы не можете редактировать свои сообщения
Вы не можете удалять свои сообщения
Вы не можете голосовать в опросах
Вы не можете прикреплять файлы к сообщениям
Вы не можете скачивать файлы

▼ Вниз