ML
     
  Уважаемый Гость!
Вы можете поддержать проект и зарегистрироваться у наших партнеров - онлайн-стратегия MyLands. При регистрации в игре Вы получите код, который сможете активировать после регистрации на pirat.ca и получить 1000 дублонов.

Ваш код:
2fd4e750dd89cae3a36ea360f2b345ccfeb562d3
 
     

No comment (Артём Темников) [2014 г., драма, WEB-DLRip] Original (RUS)

Ответить на тему
 
Автор
Сообщение

Пост 20-Янв-2016 07:54

[Q] 

aleksey99

--No comment-- Производство: Россия
Год выпуска: 2014 г.
Жанр: драма
Продолжительность: 01:47:14--Мировая премьера: 6 ноября 2015
Российская премьера: 17 декабря 2015, «Экспонента»--Режиссер: Артём Темников--В ролях: Александр Новин, Леонард Проксауф, Дмитрий Журавлев, Евгений Орехов--Описание: Во имя первой любви к прекрасной турчанке молодой немец отказывается от своего прошлого, сжигая семейные фотографии. Он больше не Томас. Теперь его зовут Хамза. И он завербован.
Алексей Басаргин — капитан российской армии, разведчик, любящий муж и отец. Они ведут видеодневники своей жизни. Две судьбы. Два мира. Столкновение неизбежно.-- --Качество видео: WEB-DLRip
Контейнер: AVI
Видео кодек: XviD
Аудио кодек: AC3
Видео: 720x304 (2.37:1), 25 fps, XviD build 50 ~1748 kbps avg, 0.32 bit/pixel
Аудио: 48 kHz, AC3 Dolby Digital, 2/0 (L,R) ch, ~192 kbps
Cубтитры: отсутствуют
Общее
Полное имя : H:\Torrent2\No.comment.2014.O.WEBDLRip.avi
Формат : AVI
Формат/Информация : Audio Video Interleave
Размер файла : 1,46 Гбайт
Продолжительность : 1 ч. 47 м.
Общий поток : 1951 Кбит/сек
Программа кодирования : VirtualDubMod 1.5.10.3 | www.virtualdub-fr.org || (build 2550/release)
Библиотека кодирования : VirtualDubMod build 2550/release
Видео
Идентификатор : 0
Формат : MPEG-4 Visual
Профиль формата : Advanced [email protected]
Параметр BVOP формата : 2
Параметр QPel формата : Нет
Параметр GMC формата : Без точки перехода
Параметр матрицы формата : Default (MPEG)
Идентификатор кодека : XVID
Идентификатор кодека/Подсказка : XviD
Продолжительность : 1 ч. 47 м.
Битрейт : 1749 Кбит/сек
Ширина : 720 пикселей
Высота : 304 пикселя
Соотношение сторон : 2,35:1
Частота кадров : 25,000 кадров/сек
Цветовое пространство : YUV
Субдискретизация насыщенности : 4:2:0
Битовая глубина : 8 бит
Тип развёртки : Прогрессивная
Метод сжатия : С потерями
Бит/(Пиксели*Кадры) : 0.320
Размер потока : 1,31 Гбайт (90%)
Библиотека кодирования : XviD 1.2.1 (UTC 2008-12-04)
Аудио
Идентификатор : 1
Формат : AC-3
Формат/Информация : Audio Coding 3
Расширение режима : CM (complete main)
Параметр Endianness формата : Big
Идентификатор кодека : 2000
Продолжительность : 1 ч. 47 м.
Вид битрейта : Постоянный
Битрейт : 192 Кбит/сек
Каналы : 2 канала
Расположение каналов : Front: L R
Частота : 48,0 КГц
Частота кадров : 31,250 кадров/сек (1536 spf)
Метод сжатия : С потерями
Размер потока : 147 Мбайт (10%)
Выравнивание : Разделение по промежуткам
Продолжительность промежутка : 40 мс. (1,00 видеокадр)
Время предзагрузки промежутка : 500 мс.
Трейлер
Download / Скачать

Хотите скачать бесплатно? Зарегистрируйтесь на сайте (ссылка на регистрацию). Pirat.ca - самый быстрый торрент трекер в рунете!

Как скачивать  ·   Что такое торрент  ·   Рейтинг и ограничения

Max72

Штурман

Пост 20-Янв-2016 18:12 (спустя 10 часов)

[Q] 

Кто посмотрел,как фильм?
[Профиль]  [ЛС] 

den_uae

Лоцман

Пост 20-Янв-2016 18:40 (спустя 28 минут)

[Q] 

Фильм посмотреть стоит. Но до реальных событий далеко. Многие наверное читали про этот бой группы ГРУ.
[Профиль]  [ЛС] 

Max72

Штурман

Пост 20-Янв-2016 22:15 (спустя 3 часа)

[Q] 

Ок,посмотрим.
[Профиль]  [ЛС] 

hevard

Гроза морей

2108

Пост 21-Янв-2016 01:29 (спустя 3 часа)

[Q] 

730188Но до реальных событий далеко.
Как "9-ая рота" ??? Фильм тоже зрелищный, но тоже далеко до реальных событий...

_________________
-Я старый пират и не знаю слов лицензионного соглашения...
[Профиль]  [ЛС] 

Jek@

Легенда

Пост 21-Янв-2016 08:06 (спустя 6 часов)

[Q] 

Спасибо!!! .
[Профиль]  [ЛС] 

nikolay.412

Корсар

Пост 21-Янв-2016 18:07 (спустя 10 часов)

[Q] 

Спасибо!!! Пиратка рулит!
[Профиль]  [ЛС] 

ss80

Флибустьер

36

Пост 21-Янв-2016 19:30 (спустя 1 час 23 минуты)

[Q] 

Спасибо!!! Раздающему респект!
[Профиль]  [ЛС] 

dinara30

Лоцман

Пост 23-Янв-2016 21:41 (спустя 2 дня 2 часа)

[Q] 

Смотреть однозначно, фильм со смыслом.
[Профиль]  [ЛС] 

TUS7884

Флибустьер

Пост 23-Янв-2016 22:05 (спустя 23 минуты)

[Q] 

фильм норм))) посмотреть можно)) Спасибо!!! Лови бочку
[Профиль]  [ЛС] 

Barmeno

Шкипер

Пост 24-Янв-2016 15:50 (спустя 17 часов)

[Q] 

фильм не понравился, зря потратил время..
[Профиль]  [ЛС] 

Gari4

Флибустьер

Пост 17-Фев-2016 05:28 (спустя 23 дня)

[Q] 

Две судьбы....Но это не передает ощущение реальности. Да, есть героизм...но честно - Сталинград гораздо лучше, а это местами, большими местами, скучное кино.
[Профиль]  [ЛС] 

nexoo

Корсар

Пост 19-Фев-2016 19:25 (спустя 2 дня 13 часов)

[Q] 

События происходят в наше время или в 90-е?
[Профиль]  [ЛС] 

RozM

Морской Волк

Пост 20-Фев-2016 11:55 (спустя 16 часов)

[Q] 

Советую посмотреть. Снято живо, правдоподобно.
[Профиль]  [ЛС] 

RomanTroizk

Морской Волк

Пост 03-Мар-2016 22:47 (спустя 12 дней)

[Q] 

Мне понравился!!!! Клевый фильм!!!
[Профиль]  [ЛС] 

swat-1986

Штурман

Пост 04-Мар-2016 22:17 (спустя 23 часа)

[Q] 

тока есть глюк перезалить надо
[Профиль]  [ЛС] 

Пост 07-Мар-2016 19:03 (спустя 2 дня 20 часов)

Топик был перенесен из форума Новинки (HD|DVD|BD| TV|SAT|PDTV| - Rips) в форум Российские фильмы
aleksey99
 
Показать сообщения:    
Ответить на тему

Текущее время: Сегодня 14:12

Часовой пояс: GMT + 4



Вы не можете начинать темы
Вы не можете отвечать на сообщения
Вы не можете редактировать свои сообщения
Вы не можете удалять свои сообщения
Вы не можете голосовать в опросах
Вы не можете прикреплять файлы к сообщениям
Вы не можете скачивать файлы

▼ Вниз