ML
     
  Уважаемый Гость!
Вы можете поддержать проект и зарегистрироваться у наших партнеров - онлайн-стратегия MyLands. При регистрации в игре Вы получите код, который сможете активировать после регистрации на pirat.ca и получить 1000 дублонов.

Ваш код:
21acd5966619d49ad0b90c3305467b4646cc11a8
 
     

Сам я - вятский уроженец (Виталий Кольцов) [1993 г., комедия, SATRip]

Ответить на тему
 
Автор
Сообщение

Пост 31-Янв-2016 01:30

[Q] 

Мархуз

-Сам я - вятский уроженец-- Производство: Россия, Свердловская киностудия
Режиссер: Виталий Кольцов
Жанр: комедия
Год выпуска: 1993 г.
Продолжительность: 01:33:23
В ролях: Михаил Ульянов, Мария Виноградова, Евгений Лебедев, Елена Королева, Валерий Прохоров, Сергей Гармаш, Тамара Совчи-Описание: Большой популярностью пользуется в своей деревне Александр Иванович Кирпиков: только у него есть лошадь, а огороды, которые нужно обрабатывать, - у всех. Вот и стараются односельчане "уважить" Кирпикова. Но однажды закаленный организм народного умельца дает сбой. После очередной пьянки скрутило Кирпикова, да так сильно, что с перепугу он решил бросить пить...-Качество видео: SATRip
Контейнер: AVI
Видео кодек: XviD
Аудио кодек: MP3
Видео: 650x504; 1031 kbps; 25 fps; 0.126 bit/pixel
Аудио: 128 kbps; 2 ch; 48 kHz
Cубтитры: отсутствуют
General
Complete name : E:\Torrent 2\Sam_ja_vatskij_urozenec_[Pirat.ca].torrent.avi
Format : AVI
Format/Info : Audio Video Interleave
File size : 779 MiB
Duration : 1h 33mn
Overall bit rate : 1 168 Kbps
Director : SATrip by Animat (fenixclub.com)
Writing application : VirtualDubMod 1.5.10.2 (build 2540/release)
Writing library : VirtualDub build 35390/release
Video
ID : 0
Format : MPEG-4 Visual
Format profile : Advanced [email protected]
Format settings, BVOP : 2
Format settings, QPel : No
Format settings, GMC : No warppoints
Format settings, Matrix : Default (H.263)
Muxing mode : Packed bitstream
Codec ID : XVID
Codec ID/Hint : XviD
Duration : 1h 33mn
Bit rate : 1 031 Kbps
Width : 650 pixels
Height : 504 pixels
Display aspect ratio : 1.290
Frame rate : 25.000 fps
Color space : YUV
Chroma subsampling : 4:2:0
Bit depth : 8 bits
Scan type : Progressive
Compression mode : Lossy
Bits/(Pixel*Frame) : 0.126
Stream size : 687 MiB (88%)
Writing library : XviD 64
Audio
ID : 1
Format : MPEG Audio
Format version : Version 1
Format profile : Layer 3
Mode : Joint stereo
Mode extension : MS Stereo
Codec ID : 55
Codec ID/Hint : MP3
Duration : 1h 33mn
Bit rate mode : Constant
Bit rate : 128 Kbps
Channel(s) : 2 channels
Sampling rate : 48.0 KHz
Compression mode : Lossy
Stream size : 85.3 MiB (11%)
Alignment : Aligned on interleaves
Interleave, duration : 40 ms (1.00 video frame)
Interleave, preload duratio : 504 ms

Раздача с 14.00 до 2.00 (время московское)
Download / Скачать

Хотите скачать бесплатно? Зарегистрируйтесь на сайте (ссылка на регистрацию). Pirat.ca - самый быстрый торрент трекер в рунете!

Как скачивать  ·   Что такое торрент  ·   Рейтинг и ограничения

Пост 31-Янв-2016 08:36 (спустя 7 часов)

Топик был перенесен из форума Наше кино (Трюм) в форум Российские фильмы
erchine
 

DellFlyer

Флибустьер

165

Пост 03-Фев-2016 19:20 (спустя 3 дня)

[Q] 

Советский треш беспощаден к современной молодёже anime9
[Профиль]  [ЛС] 
Показать сообщения:    
Ответить на тему

Текущее время: Сегодня 23:19

Часовой пояс: GMT + 4



Вы не можете начинать темы
Вы не можете отвечать на сообщения
Вы не можете редактировать свои сообщения
Вы не можете удалять свои сообщения
Вы не можете голосовать в опросах
Вы не можете прикреплять файлы к сообщениям
Вы не можете скачивать файлы

▼ Вниз