ML
     
  Уважаемый Гость!
Вы можете поддержать проект и зарегистрироваться у наших партнеров - онлайн-стратегия MyLands. При регистрации в игре Вы получите код, который сможете активировать после регистрации на pirat.ca и получить 1000 дублонов.

Ваш код:
bc31d8aef74c92e19ad67e34a8fa63c3b9b812fb
 
     

Холодный фронт (Роман Волобуев) [2015 г., триллер, мелодрама, WEB-DLRip] Original (RUS)[iTunes]

Ответить на тему
 
Автор
Сообщение

Пост 11-Фев-2016 19:51

[Q] 

aleksey99

--Холодный фронт--«Every monster needs a home»-- Производство: Россия, Франция, Hype Film, ИнкФильм, Leelame Production
Год выпуска: 2015 г.
Жанр: триллер, мелодрама
Продолжительность: 01:32:22--Российская премьера: 14 января 2016, «Арена»--Режиссер: Роман Волобуев--В ролях: Светлана Устинова, Даша Чаруша, Александр Молочников, Полина Аскери, Кристоф Ле Тессон, Татьяна Абраменко, Александра Боярская--Описание: Давно разлюбившая друг друга пара — Саша, девушка из богатой семьи, и ее бойфренд Илья — проводят зимние каникулы в отрезанном от внешнего мира доме на берегу океана на севере Франции.
В канун Нового года происходит два вроде бы не связанных между собой события: недалеко от дома героев прибой выбрасывает на берег тушу неизвестного науке животного, а тем же вечером Илья встречает в окрестностях Машу — русскую девушку, которая якобы случайно сошла с поезда не на той станции и которой негде ночевать. С Машей явно что-то не так, но Илья и Саша, увлеченные выяснением отношений, сперва не замечают зловещих странностей в поведении незванной гостьи.-- --Качество видео: WEB-DLRip
Контейнер: AVI
Видео кодек: XviD
Аудио кодек: AC3
Видео: 720x304 (2.37:1), 24 fps, XviD build 67 ~1861 kbps avg, 0.35 bit/pixel
Аудио: 48 kHz, AC3 Dolby Digital, 3/2 (L,C,R,l,r) + LFE ch, ~384 kbps
Cубтитры: отсутствуют
Общее
Полное имя : H:\Torrent2\Холодный фронт.2015.avi
Формат : AVI
Формат/Информация : Audio Video Interleave
Размер файла : 1,45 Гбайт
Продолжительность : 1 ч. 32 м.
Общий поток : 2255 Кбит/сек
Программа кодирования : VirtualDubMod 1.5.10.3 | www.virtualdub-fr.org || (build 2550/release)
Библиотека кодирования : VirtualDubMod build 2550/release
Видео
Идентификатор : 0
Формат : MPEG-4 Visual
Профиль формата : Advanced [email protected]
Параметр BVOP формата : 1
Параметр QPel формата : Нет
Параметр GMC формата : Без точки перехода
Параметр матрицы формата : Выборочная
Идентификатор кодека : XVID
Идентификатор кодека/Подсказка : XviD
Продолжительность : 1 ч. 32 м.
Битрейт : 1862 Кбит/сек
Ширина : 720 пикселей
Высота : 304 пикселя
Соотношение сторон : 2,35:1
Частота кадров : 24,000 кадра/сек
Цветовое пространство : YUV
Субдискретизация насыщенности : 4:2:0
Битовая глубина : 8 бит
Тип развёртки : Прогрессивная
Метод сжатия : С потерями
Бит/(Пиксели*Кадры) : 0.354
Размер потока : 1,20 Гбайт (83%)
Библиотека кодирования : XviD 67
Аудио
Идентификатор : 1
Формат : AC-3
Формат/Информация : Audio Coding 3
Расширение режима : CM (complete main)
Параметр Endianness формата : Big
Идентификатор кодека : 2000
Продолжительность : 1 ч. 32 м.
Вид битрейта : Постоянный
Битрейт : 384 Кбит/сек
Каналы : 6 каналов
Расположение каналов : Front: L C R, Side: L R, LFE
Частота : 48,0 КГц
Битовая глубина : 16 бит
Метод сжатия : С потерями
Размер потока : 254 Мбайт (17%)
Выравнивание : Разделение по промежуткам
Продолжительность промежутка : 42 мс. (1,00 видеокадр)
Время предзагрузки промежутка : 500 мс.
Трейлер
Download / Скачать

Хотите скачать бесплатно? Зарегистрируйтесь на сайте (ссылка на регистрацию). Pirat.ca - самый быстрый торрент трекер в рунете!

Как скачивать  ·   Что такое торрент  ·   Рейтинг и ограничения

Vintorezov REG 39

Легенда

176

Пост 12-Фев-2016 13:17 (спустя 17 часов)

[Q] 

Как фильм то ,где коменты ,качать стоит ?????
[Профиль]  [ЛС] 

DHARMEEDONT

Флибустьер

Пост 12-Фев-2016 14:34 (спустя 1 час 17 минут)

[Q] 

Неужели очередная шляпа?
[Профиль]  [ЛС] 

bolin

Флибустьер

Пост 12-Фев-2016 19:21 (спустя 4 часа)

[Q] 

Это что ужастик?
[Профиль]  [ЛС] 

bolin

Флибустьер

Пост 13-Фев-2016 01:59 (спустя 6 часов)

[Q] 

фильм ни о чем... не тратьте время
[Профиль]  [ЛС] 

disorder

Штурман

Пост 09-Мар-2016 02:27 (спустя 25 дней)

[Q] 

На название повелся, думал про Великую Отечественную хоть что-то нормальное из новых.. Тьфу мля..
[Профиль]  [ЛС] 

Barskavkaz

Корсар

Пост 11-Мар-2016 17:21 (спустя 2 дня 14 часов)

[Q] 

как то не понятно) стоит смотреть то? или нет?

_________________
Д.Тк
[Профиль]  [ЛС] 

Пост 22-Мар-2016 15:52 (спустя 10 дней)

Топик был перенесен из форума Новинки (HD|DVD|BD| TV|SAT|PDTV| - Rips) в форум Российские фильмы
aleksey99
 
Показать сообщения:    
Ответить на тему

Текущее время: Сегодня 12:00

Часовой пояс: GMT + 4



Вы не можете начинать темы
Вы не можете отвечать на сообщения
Вы не можете редактировать свои сообщения
Вы не можете удалять свои сообщения
Вы не можете голосовать в опросах
Вы не можете прикреплять файлы к сообщениям
Вы не можете скачивать файлы

▼ Вниз