ML
     
  Уважаемый Гость!
Вы можете поддержать проект и зарегистрироваться у наших партнеров - онлайн-стратегия MyLands. При регистрации в игре Вы получите код, который сможете активировать после регистрации на pirat.ca и получить 1000 дублонов.

Ваш код:
ec3b26eefbcdc72e08e9fd33c6846bb2ca10f8b1
 
     

Голоса большой страны (Таир Мамедов) [2016 г., мюзикл, комедия, мелодрама, WEB-DLRip] Original (RUS)[iTunes]

Ответить на тему
 
Автор
Сообщение

Пост 14-Фев-2016 09:35

[Q] 

aleksey99

--Голоса большой страны-- Производство: Россия, Enjoy Movies
Год выпуска: 2016 г.
Жанр: мюзикл, комедия, мелодрама
Продолжительность: 01:41:09--Российская премьера: 7 января 2016, «Каропрокат»--Режиссер: Таир Мамедов--В ролях: Алена Тойминцева, Андрей Гризли, Егор Сесарев, Тина Кузнецова, Антон Беляев, Мариам Мерабова, Ярослав Дронов, Илья Киреев, Виктория Жук, Анжелика Фролова--Описание: В каждом уголке нашей огромной родины есть талантливые люди, достойные признания и славы. Они слетаются в столицу и принимают участие в популярных телевизионных шоу. Но свет софитов гаснет, а жизнь продолжается. И не так, как им это виделось…
Каждому из наших героев — юных и взрослых, амбициозных и скромных, одиноких и влюбленных — придется пройти через многие испытания. Их ждут взлеты и падения, встречи и расставания, дружба и предательство. Но в итоге они станут одной большой командой, семьей, объединившей разных людей из самых отдаленных городков нашей большой страны, во имя музыки, таланта и, конечно же, любви!-- --Качество видео: WEB-DLRip
Контейнер: AVI
Видео кодек: XviD
Аудио кодек: AC3
Видео: 720x304 (2.37:1), 24 fps, XviD build 50 ~1674 kbps avg, 0.32 bit/pixel
Аудио: 48 kHz, AC3 Dolby Digital, 3/2 (L,C,R,l,r) + LFE ch, ~384 kbps
Cубтитры: отсутствуют
Общее
Полное имя : H:\Torrent2\G0L0Ca.CtPaHy.2016.0.WEB-DLRip.avi
Формат : AVI
Формат/Информация : Audio Video Interleave
Размер файла : 1,46 Гбайт
Продолжительность : 1 ч. 41 м.
Общий поток : 2068 Кбит/сек
Программа кодирования : VirtualDubMod 1.5.10.3 | www.virtualdub-fr.org || (build 2550/release)
Библиотека кодирования : VirtualDubMod build 2550/release
Видео
Идентификатор : 0
Формат : MPEG-4 Visual
Профиль формата : Advanced [email protected]
Параметр BVOP формата : 2
Параметр QPel формата : Нет
Параметр GMC формата : Без точки перехода
Параметр матрицы формата : Default (MPEG)
Идентификатор кодека : XVID
Идентификатор кодека/Подсказка : XviD
Продолжительность : 1 ч. 41 м.
Битрейт : 1675 Кбит/сек
Ширина : 720 пикселей
Высота : 304 пикселя
Соотношение сторон : 2,35:1
Частота кадров : 24,000 кадра/сек
Цветовое пространство : YUV
Субдискретизация насыщенности : 4:2:0
Битовая глубина : 8 бит
Тип развёртки : Прогрессивная
Метод сжатия : С потерями
Бит/(Пиксели*Кадры) : 0.319
Размер потока : 1,18 Гбайт (81%)
Библиотека кодирования : XviD 1.2.1 (UTC 2008-12-04)
Аудио
Идентификатор : 1
Формат : AC-3
Формат/Информация : Audio Coding 3
Расширение режима : CM (complete main)
Параметр Endianness формата : Big
Идентификатор кодека : 2000
Продолжительность : 1 ч. 41 м.
Вид битрейта : Постоянный
Битрейт : 384 Кбит/сек
Каналы : 6 каналов
Расположение каналов : Front: L C R, Side: L R, LFE
Частота : 48,0 КГц
Битовая глубина : 16 бит
Метод сжатия : С потерями
Размер потока : 278 Мбайт (19%)
Выравнивание : Разделение по промежуткам
Продолжительность промежутка : 42 мс. (1,00 видеокадр)
Время предзагрузки промежутка : 500 мс.
Трейлер
Download / Скачать

Хотите скачать бесплатно? Зарегистрируйтесь на сайте (ссылка на регистрацию). Pirat.ca - самый быстрый торрент трекер в рунете!

Как скачивать  ·   Что такое торрент  ·   Рейтинг и ограничения

ягжин

Гроза морей

Пост 14-Фев-2016 10:28 (спустя 52 минуты)

[Q] 

Спасибо! Супер! Автору респект!!!
[Профиль]  [ЛС] 

Vintorezov REG 39

Легенда

176

Пост 14-Фев-2016 19:42 (спустя 9 часов)

[Q] 

Что то отзывов мало .Ждал ждал не дождался .Придётся качать и смотреть.
[Профиль]  [ЛС] 

sergey718

Корсар

Пост 15-Фев-2016 05:43 (спустя 10 часов)

[Q] 

надо посмотреть-может че хорошее.
[Профиль]  [ЛС] 

Alexlogin

Гроза морей

105

Пост 15-Фев-2016 19:15 (спустя 13 часов)

[Q] 

Спасибо посмотрим
[Профиль]  [ЛС] 

demboss

Морской Волк

19

Пост 16-Фев-2016 09:26 (спустя 14 часов)

[Q] 

ребят, ну и как фильм, посмотрел хоть кто-нибудь??
Таир Мамедов - это не тот ли, который из Камеди, которому очень сложно было в юмор?
если так, то, скорее всего, это киношлак.
[Профиль]  [ЛС] 

taliwinskiy

Мичман

Пост 27-Фев-2016 17:45 (спустя 11 дней)

[Q] 

Всем привет. Автору спасибо. На счет фильма, фильм на любителей музыки и теле шоу Голос. Для киноманов -1. Отстой.
[Профиль]  [ЛС] 

Gari4

Флибустьер

Пост 28-Фев-2016 20:35 (спустя 1 день 2 часа)

[Q] 

Начнем с сюжета. Его нет. Мне кажется в первом DOOM был сюжет лучше, а в данном случае - это просто несколько людей исполняют разные песни и все....нет конечно можно взять за сюжет стремление создать пьесу...но бл...ть а как же например Шаг Вперед? На что рассчитывали создатели? Что вот выйдет отличная комедия и все будут петь....мать его за ногу Самый Лучший День - вот где хочется петь...а это просто бездарность и нелепость.... Отказать Не качайте!
[Профиль]  [ЛС] 

Barmeno

Шкипер

Пост 28-Фев-2016 21:49 (спустя 1 час 14 минут)

[Q] 

да уж, славный высер..не тратьте время
[Профиль]  [ЛС] 

bioclown

Корсар

Пост 08-Мар-2016 09:45 (спустя 8 дней)

[Q] 

Правильно пишут, фанатам "Голоса" зайдет
[Профиль]  [ЛС] 

Пост 22-Мар-2016 15:51 (спустя 14 дней)

Топик был перенесен из форума Новинки (HD|DVD|BD| TV|SAT|PDTV| - Rips) в форум Российские фильмы
aleksey99
 
Показать сообщения:    
Ответить на тему

Текущее время: Сегодня 03:48

Часовой пояс: GMT + 4



Вы не можете начинать темы
Вы не можете отвечать на сообщения
Вы не можете редактировать свои сообщения
Вы не можете удалять свои сообщения
Вы не можете голосовать в опросах
Вы не можете прикреплять файлы к сообщениям
Вы не можете скачивать файлы

▼ Вниз